  0
SECTION
  2
HEADER
  9
$ACADVER
  1
AC1015
  9
$ACADMAINTVER
 70
    20
  9
$DWGCODEPAGE
  3
ANSI_936
  9
$INSBASE
 10
0.0
 20
0.0
 30
0.0
  9
$EXTMIN
 10
342.6162734232873
 20
49.34808256086122
 30
0.0
  9
$EXTMAX
 10
386.8739336248433
 20
228.9003785154763
 30
0.0
  9
$LIMMIN
 10
0.0
 20
0.0
  9
$LIMMAX
 10
420.0
 20
297.0
  9
$ORTHOMODE
 70
     1
  9
$REGENMODE
 70
     1
  9
$FILLMODE
 70
     1
  9
$QTEXTMODE
 70
     0
  9
$MIRRTEXT
 70
     0
  9
$LTSCALE
 40
1.0
  9
$ATTMODE
 70
     1
  9
$TEXTSIZE
 40
2.5
  9
$TRACEWID
 40
1.0
  9
$TEXTSTYLE
  7
Standard
  9
$CLAYER
  8
标注
  9
$CELTYPE
  6
ByLayer
  9
$CECOLOR
 62
   256
  9
$CELTSCALE
 40
1.0
  9
$DISPSILH
 70
     0
  9
$DIMSCALE
 40
1.0
  9
$DIMASZ
 40
0.65
  9
$DIMEXO
 40
0.88
  9
$DIMDLI
 40
0.015
  9
$DIMRND
 40
0.0
  9
$DIMDLE
 40
0.0
  9
$DIMEXE
 40
0.32
  9
$DIMTP
 40
0.0
  9
$DIMTM
 40
0.0
  9
$DIMTXT
 40
0.65
  9
$DIMCEN
 40
0.09
  9
$DIMTSZ
 40
0.0
  9
$DIMTOL
 70
     0
  9
$DIMLIM
 70
     0
  9
$DIMTIH
 70
     0
  9
$DIMTOH
 70
     0
  9
$DIMSE1
 70
     0
  9
$DIMSE2
 70
     0
  9
$DIMTAD
 70
     0
  9
$DIMZIN
 70
     8
  9
$DIMBLK
  1

  9
$DIMASO
 70
     1
  9
$DIMSHO
 70
     1
  9
$DIMPOST
  1
"
  9
$DIMAPOST
  1
"
  9
$DIMALT
 70
     0
  9
$DIMALTD
 70
     1
  9
$DIMALTF
 40
0.03937
  9
$DIMLFAC
 40
1.0
  9
$DIMTOFL
 70
     1
  9
$DIMTVP
 40
0.0
  9
$DIMTIX
 70
     0
  9
$DIMSOXD
 70
     0
  9
$DIMSAH
 70
     0
  9
$DIMBLK1
  1

  9
$DIMBLK2
  1

  9
$DIMSTYLE
  2
副本Standard
  9
$DIMCLRD
 70
   256
  9
$DIMCLRE
 70
   256
  9
$DIMCLRT
 70
   256
  9
$DIMTFAC
 40
1.0
  9
$DIMGAP
 40
0.2
  9
$DIMJUST
 70
     0
  9
$DIMSD1
 70
     0
  9
$DIMSD2
 70
     0
  9
$DIMTOLJ
 70
     1
  9
$DIMTZIN
 70
     0
  9
$DIMALTZ
 70
     0
  9
$DIMALTTZ
 70
     0
  9
$DIMUPT
 70
     0
  9
$DIMDEC
 70
     3
  9
$DIMTDEC
 70
     3
  9
$DIMALTU
 70
     2
  9
$DIMALTTD
 70
     1
  9
$DIMTXSTY
  7
Standard
  9
$DIMAUNIT
 70
     0
  9
$DIMADEC
 70
     1
  9
$DIMALTRND
 40
0.0
  9
$DIMAZIN
 70
     2
  9
$DIMDSEP
 70
    44
  9
$DIMATFIT
 70
     3
  9
$DIMFRAC
 70
     2
  9
$DIMLDRBLK
  1

  9
$DIMLUNIT
 70
     5
  9
$DIMLWD
 70
    -2
  9
$DIMLWE
 70
    -2
  9
$DIMTMOVE
 70
     0
  9
$LUNITS
 70
     2
  9
$LUPREC
 70
     4
  9
$SKETCHINC
 40
1.0
  9
$FILLETRAD
 40
0.0
  9
$AUNITS
 70
     0
  9
$AUPREC
 70
     0
  9
$MENU
  1
.
  9
$ELEVATION
 40
0.0
  9
$PELEVATION
 40
0.0
  9
$THICKNESS
 40
0.0
  9
$LIMCHECK
 70
     0
  9
$CHAMFERA
 40
0.0
  9
$CHAMFERB
 40
0.0
  9
$CHAMFERC
 40
0.0
  9
$CHAMFERD
 40
0.0
  9
$SKPOLY
 70
     0
  9
$TDCREATE
 40
2455855.628782743
  9
$TDUCREATE
 40
2455855.295449410
  9
$TDUPDATE
 40
2458650.399953357
  9
$TDUUPDATE
 40
2458650.066620023
  9
$TDINDWG
 40
0.0245100579
  9
$TDUSRTIMER
 40
0.0245095139
  9
$USRTIMER
 70
     1
  9
$ANGBASE
 50
0.0
  9
$ANGDIR
 70
     0
  9
$PDMODE
 70
     0
  9
$PDSIZE
 40
0.0
  9
$PLINEWID
 40
0.0
  9
$SPLFRAME
 70
     0
  9
$SPLINETYPE
 70
     6
  9
$SPLINESEGS
 70
     8
  9
$HANDSEED
  5
1216
  9
$SURFTAB1
 70
     6
  9
$SURFTAB2
 70
     6
  9
$SURFTYPE
 70
     6
  9
$SURFU
 70
     6
  9
$SURFV
 70
     6
  9
$UCSBASE
  2

  9
$UCSNAME
  2

  9
$UCSORG
 10
0.0
 20
0.0
 30
0.0
  9
$UCSXDIR
 10
1.0
 20
0.0
 30
0.0
  9
$UCSYDIR
 10
0.0
 20
1.0
 30
0.0
  9
$UCSORTHOREF
  2

  9
$UCSORTHOVIEW
 70
     0
  9
$UCSORGTOP
 10
0.0
 20
0.0
 30
0.0
  9
$UCSORGBOTTOM
 10
0.0
 20
0.0
 30
0.0
  9
$UCSORGLEFT
 10
0.0
 20
0.0
 30
0.0
  9
$UCSORGRIGHT
 10
0.0
 20
0.0
 30
0.0
  9
$UCSORGFRONT
 10
0.0
 20
0.0
 30
0.0
  9
$UCSORGBACK
 10
0.0
 20
0.0
 30
0.0
  9
$PUCSBASE
  2

  9
$PUCSNAME
  2

  9
$PUCSORG
 10
0.0
 20
0.0
 30
0.0
  9
$PUCSXDIR
 10
1.0
 20
0.0
 30
0.0
  9
$PUCSYDIR
 10
0.0
 20
1.0
 30
0.0
  9
$PUCSORTHOREF
  2

  9
$PUCSORTHOVIEW
 70
     0
  9
$PUCSORGTOP
 10
0.0
 20
0.0
 30
0.0
  9
$PUCSORGBOTTOM
 10
0.0
 20
0.0
 30
0.0
  9
$PUCSORGLEFT
 10
0.0
 20
0.0
 30
0.0
  9
$PUCSORGRIGHT
 10
0.0
 20
0.0
 30
0.0
  9
$PUCSORGFRONT
 10
0.0
 20
0.0
 30
0.0
  9
$PUCSORGBACK
 10
0.0
 20
0.0
 30
0.0
  9
$USERI1
 70
     0
  9
$USERI2
 70
     0
  9
$USERI3
 70
     0
  9
$USERI4
 70
     0
  9
$USERI5
 70
     0
  9
$USERR1
 40
0.0
  9
$USERR2
 40
0.0
  9
$USERR3
 40
0.0
  9
$USERR4
 40
0.0
  9
$USERR5
 40
2.5
  9
$WORLDVIEW
 70
     1
  9
$SHADEDGE
 70
     3
  9
$SHADEDIF
 70
    70
  9
$TILEMODE
 70
     1
  9
$MAXACTVP
 70
    64
  9
$PINSBASE
 10
0.0
 20
0.0
 30
0.0
  9
$PLIMCHECK
 70
     0
  9
$PEXTMIN
 10
1.000000000000000E+20
 20
1.000000000000000E+20
 30
1.000000000000000E+20
  9
$PEXTMAX
 10
-1.000000000000000E+20
 20
-1.000000000000000E+20
 30
-1.000000000000000E+20
  9
$PLIMMIN
 10
0.0
 20
0.0
  9
$PLIMMAX
 10
420.0
 20
297.0
  9
$UNITMODE
 70
     0
  9
$VISRETAIN
 70
     1
  9
$PLINEGEN
 70
     0
  9
$PSLTSCALE
 70
     1
  9
$TREEDEPTH
 70
  3020
  9
$CMLSTYLE
  2
Standard
  9
$CMLJUST
 70
     0
  9
$CMLSCALE
 40
20.0
  9
$PROXYGRAPHICS
 70
     1
  9
$MEASUREMENT
 70
     1
  9
$CELWEIGHT
370
    -1
  9
$ENDCAPS
280
     0
  9
$JOINSTYLE
280
     0
  9
$LWDISPLAY
290
     0
  9
$INSUNITS
 70
     4
  9
$HYPERLINKBASE
  1

  9
$STYLESHEET
  1

  9
$XEDIT
290
     1
  9
$CEPSNTYPE
380
     0
  9
$PSTYLEMODE
290
     1
  9
$FINGERPRINTGUID
  2
{B48F46D2-D0EA-4C00-A4A8-23CB7417C210}
  9
$VERSIONGUID
  2
{51BA0D1C-D028-438E-9465-3B1BCF8B77CF}
  9
$EXTNAMES
290
     1
  9
$PSVPSCALE
 40
0.0
  9
$OLESTARTUP
290
     0
  0
ENDSEC
  0
SECTION
  2
CLASSES
  0
CLASS
  1
ACDBDICTIONARYWDFLT
  2
AcDbDictionaryWithDefault
  3
ObjectDBX Classes
 90
        0
280
     0
281
     0
  0
CLASS
  1
DIMASSOC
  2
AcDbDimAssoc
  3
"AcDbDimAssoc|Product Desc:     AcDim ARX App For Dimension|Company:          Autodesk, Inc.|WEB Address:      www.autodesk.com"
 90
        0
280
     0
281
     0
  0
CLASS
  1
SORTENTSTABLE
  2
AcDbSortentsTable
  3
ObjectDBX Classes
 90
    32768
280
     0
281
     0
  0
CLASS
  1
MATERIAL
  2
AcDbMaterial
  3
ObjectDBX Classes
 90
     1153
280
     0
281
     0
  0
CLASS
  1
VISUALSTYLE
  2
AcDbVisualStyle
  3
ObjectDBX Classes
 90
     4095
280
     0
281
     0
  0
CLASS
  1
TABLESTYLE
  2
AcDbTableStyle
  3
ObjectDBX Classes
 90
     4095
280
     0
281
     0
  0
CLASS
  1
SCALE
  2
AcDbScale
  3
ObjectDBX Classes
 90
     1153
280
     0
281
     0
  0
CLASS
  1
MLEADERSTYLE
  2
AcDbMLeaderStyle
  3
ACDB_MLEADERSTYLE_CLASS
 90
     4095
280
     0
281
     0
  0
CLASS
  1
VLO-VL
  2
vlo_VL
  3
VL|AutoLISP based application
 90
      129
280
     0
281
     0
  0
CLASS
  1
DICTIONARYVAR
  2
AcDbDictionaryVar
  3
ObjectDBX Classes
 90
        0
280
     0
281
     0
  0
CLASS
  1
CELLSTYLEMAP
  2
AcDbCellStyleMap
  3
ObjectDBX Classes
 90
     1152
280
     0
281
     0
  0
CLASS
  1
ACDBPLACEHOLDER
  2
AcDbPlaceHolder
  3
ObjectDBX Classes
 90
        0
280
     0
281
     0
  0
CLASS
  1
LAYOUT
  2
AcDbLayout
  3
ObjectDBX Classes
 90
        0
280
     0
281
     0
  0
ENDSEC
  0
SECTION
  2
TABLES
  0
TABLE
  2
VPORT
  5
8
330
0
100
AcDbSymbolTable
 70
     1
  0
VPORT
  5
1127
330
8
100
AcDbSymbolTableRecord
100
AcDbViewportTableRecord
  2
*Active
 70
     0
 10
0.0
 20
0.0
 11
1.0
 21
1.0
 12
369.1963311573381
 22
225.2648207509436
 13
0.0
 23
0.0
 14
10.0
 24
10.0
 15
10.0
 25
10.0
 16
0.0
 26
0.0
 36
1.0
 17
0.0
 27
0.0
 37
0.0
 40
86.52294042008055
 41
1.622972972972972
 42
50.0
 43
0.0
 44
0.0
 50
0.0
 51
0.0
 71
     0
 72
  1000
 73
     1
 74
     3
 75
     0
 76
     0
 77
     0
 78
     0
281
     0
 65
     1
110
0.0
120
0.0
130
0.0
111
1.0
121
0.0
131
0.0
112
0.0
122
1.0
132
0.0
 79
     0
146
0.0
  0
ENDTAB
  0
TABLE
  2
LTYPE
  5
5
330
0
100
AcDbSymbolTable
 70
     3
  0
LTYPE
  5
14
330
5
100
AcDbSymbolTableRecord
100
AcDbLinetypeTableRecord
  2
ByBlock
 70
     0
  3

 72
    65
 73
     0
 40
0.0
  0
LTYPE
  5
15
330
5
100
AcDbSymbolTableRecord
100
AcDbLinetypeTableRecord
  2
ByLayer
 70
     0
  3

 72
    65
 73
     0
 40
0.0
  0
LTYPE
  5
16
330
5
100
AcDbSymbolTableRecord
100
AcDbLinetypeTableRecord
  2
Continuous
 70
     0
  3
Solid line
 72
    65
 73
     0
 40
0.0
  0
LTYPE
  5
ED
330
5
100
AcDbSymbolTableRecord
100
AcDbLinetypeTableRecord
  2
CENTER2
 70
     0
  3
Center (.5x) ___ _ ___ _ ___ _ ___ _ ___ _ ___
 72
    65
 73
     4
 40
28.575
 49
19.05
 74
     0
 49
-3.174999999999998
 74
     0
 49
3.174999999999998
 74
     0
 49
-3.174999999999998
 74
     0
  0
LTYPE
  5
EE
330
5
100
AcDbSymbolTableRecord
100
AcDbLinetypeTableRecord
  2
HIDDEN2
 70
     0
  3
Hidden (.5x) _ _ _ _ _ _ _ _ _ _ _ _ _ _ _ _ _
 72
    65
 73
     2
 40
4.762499999999998
 49
3.174999999999998
 74
     0
 49
-1.587499999999999
 74
     0
  0
ENDTAB
  0
TABLE
  2
LAYER
  5
2
102
{ACAD_XDICTIONARY
360
F7
102
}
330
0
100
AcDbSymbolTable
 70
     6
  0
LAYER
  5
10
102
{ACAD_XDICTIONARY
360
1199
102
}
330
2
100
AcDbSymbolTableRecord
100
AcDbLayerTableRecord
  2
0
 70
     0
 62
     7
  6
Continuous
370
    -3
390
F
  0
LAYER
  5
EF
102
{ACAD_XDICTIONARY
360
119B
102
}
330
2
100
AcDbSymbolTableRecord
100
AcDbLayerTableRecord
  2
中心线
 70
     0
 62
     1
  6
CENTER2
370
    -3
390
F
  0
LAYER
  5
F0
102
{ACAD_XDICTIONARY
360
119D
102
}
330
2
100
AcDbSymbolTableRecord
100
AcDbLayerTableRecord
  2
虚线
 70
     0
 62
     4
  6
HIDDEN2
370
    -3
390
F
  0
LAYER
  5
F1
330
2
100
AcDbSymbolTableRecord
100
AcDbLayerTableRecord
  2
Defpoints
 70
     0
 62
     7
  6
Continuous
290
     0
370
    -3
390
F
  0
LAYER
  5
F2
102
{ACAD_XDICTIONARY
360
119F
102
}
330
2
100
AcDbSymbolTableRecord
100
AcDbLayerTableRecord
  2
标注
 70
     0
 62
    80
  6
Continuous
370
     5
390
F
1001
AcAecLayerStandard
1000

1000

  0
LAYER
  5
F3
102
{ACAD_XDICTIONARY
360
11A1
102
}
330
2
100
AcDbSymbolTableRecord
100
AcDbLayerTableRecord
  2
截面层
 70
     0
 62
     6
  6
Continuous
370
    50
390
F
  0
ENDTAB
  0
TABLE
  2
STYLE
  5
3
330
0
100
AcDbSymbolTable
 70
     1
  0
STYLE
  5
11
330
3
100
AcDbSymbolTableRecord
100
AcDbTextStyleTableRecord
  2
Standard
 70
     0
 40
0.0
 41
1.0
 50
0.0
 71
     0
 42
2.5
  3
txt
  4

  0
ENDTAB
  0
TABLE
  2
VIEW
  5
6
330
0
100
AcDbSymbolTable
 70
     0
  0
ENDTAB
  0
TABLE
  2
UCS
  5
7
330
0
100
AcDbSymbolTable
 70
     0
  0
ENDTAB
  0
TABLE
  2
APPID
  5
9
330
0
100
AcDbSymbolTable
 70
     7
  0
APPID
  5
12
330
9
100
AcDbSymbolTableRecord
100
AcDbRegAppTableRecord
  2
ACAD
 70
     0
  0
APPID
  5
F6
330
9
100
AcDbSymbolTableRecord
100
AcDbRegAppTableRecord
  2
AcAecLayerStandard
 70
     0
  0
APPID
  5
7AE
330
9
100
AcDbSymbolTableRecord
100
AcDbRegAppTableRecord
  2
ACAD_DSTYLE_DIMEXT_LENGTH
 70
     0
  0
APPID
  5
7AF
330
9
100
AcDbSymbolTableRecord
100
AcDbRegAppTableRecord
  2
ACAD_DSTYLE_DIMEXT_ENABLED
 70
     0
  0
APPID
  5
7B0
330
9
100
AcDbSymbolTableRecord
100
AcDbRegAppTableRecord
  2
ACAD_DSTYLE_DIMJOGGED_JOGANGLE_SYMBOL
 70
     0
  0
APPID
  5
7B1
330
9
100
AcDbSymbolTableRecord
100
AcDbRegAppTableRecord
  2
ACAD_DSTYLE_DIMARC_LENGTH_SYMBOL
 70
     0
  0
APPID
  5
1179
330
9
100
AcDbSymbolTableRecord
100
AcDbRegAppTableRecord
  2
ACAD_MLEADERVER
 70
     0
  0
ENDTAB
  0
TABLE
  2
DIMSTYLE
  5
A
330
0
100
AcDbSymbolTable
 70
     3
100
AcDbDimStyleTable
 71
     2
340
F5
340
29
  0
DIMSTYLE
105
29
330
A
100
AcDbSymbolTableRecord
100
AcDbDimStyleTableRecord
  2
ISO-25
 70
     0
 41
2.5
 42
0.625
 43
3.75
 44
1.25
 73
     0
 74
     0
 77
     1
 78
     8
140
2.5
141
2.5
143
0.03937007874016
147
0.625
171
     3
172
     1
271
     2
272
     2
274
     3
283
     0
284
     8
340
11
  0
DIMSTYLE
105
F4
330
A
100
AcDbSymbolTableRecord
100
AcDbDimStyleTableRecord
  2
Standard
 70
     0
340
11
  0
DIMSTYLE
105
F5
102
{ACAD_REACTORS
330
F80
330
F7D
330
F52
330
F4F
330
F8E
330
F8B
330
F8A
330
F89
330
F86
330
F83
330
F67
330
FAD
330
FAA
330
FA7
330
FA4
330
FA1
330
F9E
330
F9B
330
117F
102
}
330
A
100
AcDbSymbolTableRecord
100
AcDbDimStyleTableRecord
  2
副本Standard
 70
     0
  3
"
  4
"
 41
0.65
 42
0.88
 43
0.015
 44
0.32
 73
     0
 74
     0
 78
     8
 79
     2
140
0.65
143
0.03937
147
0.2
171
     1
172
     1
176
   256
177
   256
178
   256
179
     1
271
     3
272
     3
274
     1
276
     2
277
     5
278
    44
340
11
  0
ENDTAB
  0
TABLE
  2
BLOCK_RECORD
  5
1
330
0
100
AcDbSymbolTable
 70
    88
  0
BLOCK_RECORD
  5
21
330
1
100
AcDbSymbolTableRecord
100
AcDbBlockTableRecord
  2
*Model_Space
340
24
  0
BLOCK_RECORD
  5
1D
330
1
100
AcDbSymbolTableRecord
100
AcDbBlockTableRecord
  2
*Paper_Space
340
20
  0
BLOCK_RECORD
  5
25
330
1
100
AcDbSymbolTableRecord
100
AcDbBlockTableRecord
  2
*Paper_Space0
340
28
  0
BLOCK_RECORD
  5
59A
330
1
100
AcDbSymbolTableRecord
100
AcDbBlockTableRecord
  2
*D1
340
0
  0
BLOCK_RECORD
  5
5A7
330
1
100
AcDbSymbolTableRecord
100
AcDbBlockTableRecord
  2
*D2
340
0
  0
BLOCK_RECORD
  5
5B5
330
1
100
AcDbSymbolTableRecord
100
AcDbBlockTableRecord
  2
*D3
340
0
  0
BLOCK_RECORD
  5
5C3
330
1
100
AcDbSymbolTableRecord
100
AcDbBlockTableRecord
  2
*D4
340
0
  0
BLOCK_RECORD
  5
5D0
330
1
100
AcDbSymbolTableRecord
100
AcDbBlockTableRecord
  2
*D5
340
0
  0
BLOCK_RECORD
  5
5D8
330
1
100
AcDbSymbolTableRecord
100
AcDbBlockTableRecord
  2
*D6
340
0
  0
BLOCK_RECORD
  5
5E5
330
1
100
AcDbSymbolTableRecord
100
AcDbBlockTableRecord
  2
*D7
340
0
  0
BLOCK_RECORD
  5
5FC
330
1
100
AcDbSymbolTableRecord
100
AcDbBlockTableRecord
  2
*D8
340
0
  0
BLOCK_RECORD
  5
609
330
1
100
AcDbSymbolTableRecord
100
AcDbBlockTableRecord
  2
*D9
340
0
  0
BLOCK_RECORD
  5
616
330
1
100
AcDbSymbolTableRecord
100
AcDbBlockTableRecord
  2
*D10
340
0
  0
BLOCK_RECORD
  5
62F
330
1
100
AcDbSymbolTableRecord
100
AcDbBlockTableRecord
  2
*D11
340
0
  0
BLOCK_RECORD
  5
648
330
1
100
AcDbSymbolTableRecord
100
AcDbBlockTableRecord
  2
*D12
340
0
  0
BLOCK_RECORD
  5
650
330
1
100
AcDbSymbolTableRecord
100
AcDbBlockTableRecord
  2
*D13
340
0
  0
BLOCK_RECORD
  5
658
330
1
100
AcDbSymbolTableRecord
100
AcDbBlockTableRecord
  2
*D14
340
0
  0
BLOCK_RECORD
  5
665
330
1
100
AcDbSymbolTableRecord
100
AcDbBlockTableRecord
  2
*D15
340
0
  0
BLOCK_RECORD
  5
672
330
1
100
AcDbSymbolTableRecord
100
AcDbBlockTableRecord
  2
*D16
340
0
  0
BLOCK_RECORD
  5
67F
330
1
100
AcDbSymbolTableRecord
100
AcDbBlockTableRecord
  2
*D17
340
0
  0
BLOCK_RECORD
  5
87C
330
1
100
AcDbSymbolTableRecord
100
AcDbBlockTableRecord
  2
*D18
340
0
  0
BLOCK_RECORD
  5
889
330
1
100
AcDbSymbolTableRecord
100
AcDbBlockTableRecord
  2
*D19
340
0
  0
BLOCK_RECORD
  5
896
330
1
100
AcDbSymbolTableRecord
100
AcDbBlockTableRecord
  2
*D20
340
0
  0
BLOCK_RECORD
  5
8A3
330
1
100
AcDbSymbolTableRecord
100
AcDbBlockTableRecord
  2
*D21
340
0
  0
BLOCK_RECORD
  5
8B0
330
1
100
AcDbSymbolTableRecord
100
AcDbBlockTableRecord
  2
*D22
340
0
  0
BLOCK_RECORD
  5
8BD
330
1
100
AcDbSymbolTableRecord
100
AcDbBlockTableRecord
  2
*D23
340
0
  0
BLOCK_RECORD
  5
8CA
330
1
100
AcDbSymbolTableRecord
100
AcDbBlockTableRecord
  2
*D24
340
0
  0
BLOCK_RECORD
  5
8D7
330
1
100
AcDbSymbolTableRecord
100
AcDbBlockTableRecord
  2
*D25
340
0
  0
BLOCK_RECORD
  5
8E4
330
1
100
AcDbSymbolTableRecord
100
AcDbBlockTableRecord
  2
*D26
340
0
  0
BLOCK_RECORD
  5
AD6
330
1
100
AcDbSymbolTableRecord
100
AcDbBlockTableRecord
  2
*D27
340
0
  0
BLOCK_RECORD
  5
AF2
330
1
100
AcDbSymbolTableRecord
100
AcDbBlockTableRecord
  2
*D28
340
0
  0
BLOCK_RECORD
  5
B0E
330
1
100
AcDbSymbolTableRecord
100
AcDbBlockTableRecord
  2
*D29
340
0
  0
BLOCK_RECORD
  5
B1D
330
1
100
AcDbSymbolTableRecord
100
AcDbBlockTableRecord
  2
*D30
340
0
  0
BLOCK_RECORD
  5
B37
330
1
100
AcDbSymbolTableRecord
100
AcDbBlockTableRecord
  2
*D31
340
0
  0
BLOCK_RECORD
  5
B47
330
1
100
AcDbSymbolTableRecord
100
AcDbBlockTableRecord
  2
*D32
340
0
  0
BLOCK_RECORD
  5
B59
330
1
100
AcDbSymbolTableRecord
100
AcDbBlockTableRecord
  2
*D33
340
0
  0
BLOCK_RECORD
  5
B69
330
1
100
AcDbSymbolTableRecord
100
AcDbBlockTableRecord
  2
*D34
340
0
  0
BLOCK_RECORD
  5
B79
330
1
100
AcDbSymbolTableRecord
100
AcDbBlockTableRecord
  2
*D35
340
0
  0
BLOCK_RECORD
  5
B89
330
1
100
AcDbSymbolTableRecord
100
AcDbBlockTableRecord
  2
*D36
340
0
  0
BLOCK_RECORD
  5
B99
330
1
100
AcDbSymbolTableRecord
100
AcDbBlockTableRecord
  2
*D37
340
0
  0
BLOCK_RECORD
  5
BA9
330
1
100
AcDbSymbolTableRecord
100
AcDbBlockTableRecord
  2
*D38
340
0
  0
BLOCK_RECORD
  5
C6C
330
1
100
AcDbSymbolTableRecord
100
AcDbBlockTableRecord
  2
*D39
340
0
  0
BLOCK_RECORD
  5
C79
330
1
100
AcDbSymbolTableRecord
100
AcDbBlockTableRecord
  2
*D40
340
0
  0
BLOCK_RECORD
  5
C86
330
1
100
AcDbSymbolTableRecord
100
AcDbBlockTableRecord
  2
*D41
340
0
  0
BLOCK_RECORD
  5
C93
330
1
100
AcDbSymbolTableRecord
100
AcDbBlockTableRecord
  2
*D42
340
0
  0
BLOCK_RECORD
  5
CA0
330
1
100
AcDbSymbolTableRecord
100
AcDbBlockTableRecord
  2
*D43
340
0
  0
BLOCK_RECORD
  5
CAD
330
1
100
AcDbSymbolTableRecord
100
AcDbBlockTableRecord
  2
*D44
340
0
  0
BLOCK_RECORD
  5
CBA
330
1
100
AcDbSymbolTableRecord
100
AcDbBlockTableRecord
  2
*D45
340
0
  0
BLOCK_RECORD
  5
CC7
330
1
100
AcDbSymbolTableRecord
100
AcDbBlockTableRecord
  2
*D46
340
0
  0
BLOCK_RECORD
  5
CD5
330
1
100
AcDbSymbolTableRecord
100
AcDbBlockTableRecord
  2
*D47
340
0
  0
BLOCK_RECORD
  5
CE3
330
1
100
AcDbSymbolTableRecord
100
AcDbBlockTableRecord
  2
*D48
340
0
  0
BLOCK_RECORD
  5
CF1
330
1
100
AcDbSymbolTableRecord
100
AcDbBlockTableRecord
  2
*D49
340
0
  0
BLOCK_RECORD
  5
CFF
330
1
100
AcDbSymbolTableRecord
100
AcDbBlockTableRecord
  2
*D50
340
0
  0
BLOCK_RECORD
  5
D07
330
1
100
AcDbSymbolTableRecord
100
AcDbBlockTableRecord
  2
*D51
340
0
  0
BLOCK_RECORD
  5
D0F
330
1
100
AcDbSymbolTableRecord
100
AcDbBlockTableRecord
  2
*D52
340
0
  0
BLOCK_RECORD
  5
D17
330
1
100
AcDbSymbolTableRecord
100
AcDbBlockTableRecord
  2
*D53
340
0
  0
BLOCK_RECORD
  5
DC5
330
1
100
AcDbSymbolTableRecord
100
AcDbBlockTableRecord
  2
*D54
340
0
  0
BLOCK_RECORD
  5
DD3
330
1
100
AcDbSymbolTableRecord
100
AcDbBlockTableRecord
  2
*D55
340
0
  0
BLOCK_RECORD
  5
DE1
330
1
100
AcDbSymbolTableRecord
100
AcDbBlockTableRecord
  2
*D56
340
0
  0
BLOCK_RECORD
  5
DE9
330
1
100
AcDbSymbolTableRecord
100
AcDbBlockTableRecord
  2
*D57
340
0
  0
BLOCK_RECORD
  5
DF1
330
1
100
AcDbSymbolTableRecord
100
AcDbBlockTableRecord
  2
*D58
340
0
  0
BLOCK_RECORD
  5
DF9
330
1
100
AcDbSymbolTableRecord
100
AcDbBlockTableRecord
  2
*D59
340
0
  0
BLOCK_RECORD
  5
E17
330
1
100
AcDbSymbolTableRecord
100
AcDbBlockTableRecord
  2
*D60
340
0
  0
BLOCK_RECORD
  5
E25
330
1
100
AcDbSymbolTableRecord
100
AcDbBlockTableRecord
  2
*D61
340
0
  0
BLOCK_RECORD
  5
E33
330
1
100
AcDbSymbolTableRecord
100
AcDbBlockTableRecord
  2
*D62
340
0
  0
BLOCK_RECORD
  5
E40
330
1
100
AcDbSymbolTableRecord
100
AcDbBlockTableRecord
  2
*D63
340
0
  0
BLOCK_RECORD
  5
E4D
330
1
100
AcDbSymbolTableRecord
100
AcDbBlockTableRecord
  2
*D64
340
0
  0
BLOCK_RECORD
  5
E5A
330
1
100
AcDbSymbolTableRecord
100
AcDbBlockTableRecord
  2
*D65
340
0
  0
BLOCK_RECORD
  5
E67
330
1
100
AcDbSymbolTableRecord
100
AcDbBlockTableRecord
  2
*D66
340
0
  0
BLOCK_RECORD
  5
E74
330
1
100
AcDbSymbolTableRecord
100
AcDbBlockTableRecord
  2
*D67
340
0
  0
BLOCK_RECORD
  5
E81
330
1
100
AcDbSymbolTableRecord
100
AcDbBlockTableRecord
  2
*D68
340
0
  0
BLOCK_RECORD
  5
103F
330
1
100
AcDbSymbolTableRecord
100
AcDbBlockTableRecord
  2
*D69
340
0
  0
BLOCK_RECORD
  5
104D
330
1
100
AcDbSymbolTableRecord
100
AcDbBlockTableRecord
  2
*D70
340
0
  0
BLOCK_RECORD
  5
105B
330
1
100
AcDbSymbolTableRecord
100
AcDbBlockTableRecord
  2
*D71
340
0
  0
BLOCK_RECORD
  5
1063
330
1
100
AcDbSymbolTableRecord
100
AcDbBlockTableRecord
  2
*D72
340
0
  0
BLOCK_RECORD
  5
106B
330
1
100
AcDbSymbolTableRecord
100
AcDbBlockTableRecord
  2
*D73
340
0
  0
BLOCK_RECORD
  5
1073
330
1
100
AcDbSymbolTableRecord
100
AcDbBlockTableRecord
  2
*D74
340
0
  0
BLOCK_RECORD
  5
107B
330
1
100
AcDbSymbolTableRecord
100
AcDbBlockTableRecord
  2
*D75
340
0
  0
BLOCK_RECORD
  5
1089
330
1
100
AcDbSymbolTableRecord
100
AcDbBlockTableRecord
  2
*D76
340
0
  0
BLOCK_RECORD
  5
10AD
330
1
100
AcDbSymbolTableRecord
100
AcDbBlockTableRecord
  2
*D77
340
0
  0
BLOCK_RECORD
  5
10B5
330
1
100
AcDbSymbolTableRecord
100
AcDbBlockTableRecord
  2
*D78
340
0
  0
BLOCK_RECORD
  5
10BD
330
1
100
AcDbSymbolTableRecord
100
AcDbBlockTableRecord
  2
*D79
340
0
  0
BLOCK_RECORD
  5
10CA
330
1
100
AcDbSymbolTableRecord
100
AcDbBlockTableRecord
  2
*D80
340
0
  0
BLOCK_RECORD
  5
10D7
330
1
100
AcDbSymbolTableRecord
100
AcDbBlockTableRecord
  2
*D81
340
0
  0
BLOCK_RECORD
  5
10E4
330
1
100
AcDbSymbolTableRecord
100
AcDbBlockTableRecord
  2
*D82
340
0
  0
BLOCK_RECORD
  5
10F1
330
1
100
AcDbSymbolTableRecord
100
AcDbBlockTableRecord
  2
*D83
340
0
  0
BLOCK_RECORD
  5
10FE
330
1
100
AcDbSymbolTableRecord
100
AcDbBlockTableRecord
  2
*D84
340
0
  0
BLOCK_RECORD
  5
110B
330
1
100
AcDbSymbolTableRecord
100
AcDbBlockTableRecord
  2
*D85
340
0
  0
BLOCK_RECORD
  5
1118
330
1
100
AcDbSymbolTableRecord
100
AcDbBlockTableRecord
  2
*D86
340
0
  0
BLOCK_RECORD
  5
1180
330
1
100
AcDbSymbolTableRecord
100
AcDbBlockTableRecord
  2
*D87
340
0
  0
ENDTAB
  0
ENDSEC
  0
SECTION
  2
BLOCKS
  0
BLOCK
  5
22
330
21
100
AcDbEntity
  8
0
100
AcDbBlockBegin
  2
*Model_Space
 70
     0
 10
0.0
 20
0.0
 30
0.0
  3
*Model_Space
  1

  0
ENDBLK
  5
23
330
21
100
AcDbEntity
  8
0
100
AcDbBlockEnd
  0
BLOCK
  5
1E
330
1D
100
AcDbEntity
 67
     1
  8
0
100
AcDbBlockBegin
  2
*Paper_Space
 70
     0
 10
0.0
 20
0.0
 30
0.0
  3
*Paper_Space
  1

  0
ENDBLK
  5
1F
330
1D
100
AcDbEntity
 67
     1
  8
0
100
AcDbBlockEnd
  0
BLOCK
  5
26
330
25
100
AcDbEntity
 67
     1
  8
0
100
AcDbBlockBegin
  2
*Paper_Space0
 70
     0
 10
0.0
 20
0.0
 30
0.0
  3
*Paper_Space0
  1

  0
ENDBLK
  5
27
330
25
100
AcDbEntity
 67
     1
  8
0
100
AcDbBlockEnd
  0
BLOCK
  5
5A5
330
59A
100
AcDbEntity
  8
0
100
AcDbBlockBegin
  2
*D1
 70
     1
 10
0.0
 20
0.0
 30
0.0
  3
*D1
  1

  0
LINE
  5
6EF
330
59A
100
AcDbEntity
  8
标注
370
    -2
100
AcDbLine
 10
202.9990531621331
 20
210.5128721613448
 30
0.0
 11
193.7220299555844
 21
210.5128721613448
 31
0.0
  0
LINE
  5
6F0
330
59A
100
AcDbEntity
  8
标注
370
    -2
100
AcDbLine
 10
202.9990531621331
 20
189.7727146810271
 30
0.0
 11
193.7220299555844
 21
189.7727146810271
 31
0.0
  0
LINE
  5
6F1
330
59A
100
AcDbEntity
  8
标注
370
    -2
100
AcDbLine
 10
194.0420299555844
 20
209.8628721613448
 30
0.0
 11
194.0420299555844
 21
202.3469600878526
 31
0.0
  0
LINE
  5
6F2
330
59A
100
AcDbEntity
  8
标注
370
    -2
100
AcDbLine
 10
194.0420299555844
 20
190.4227146810271
 30
0.0
 11
194.0420299555844
 21
197.9386267545192
 31
0.0
  0
SOLID
  5
6F3
330
59A
100
AcDbEntity
  8
标注
100
AcDbTrace
 10
193.9336966222511
 20
209.8628721613448
 30
0.0
 11
194.1503632889178
 21
209.8628721613448
 31
0.0
 12
194.0420299555844
 22
210.5128721613448
 32
0.0
 13
194.0420299555844
 23
210.5128721613448
 33
0.0
  0
SOLID
  5
6F4
330
59A
100
AcDbEntity
  8
标注
100
AcDbTrace
 10
193.9336966222511
 20
190.4227146810271
 30
0.0
 11
194.1503632889177
 21
190.4227146810271
 31
0.0
 12
194.0420299555844
 22
189.7727146810271
 32
0.0
 13
194.0420299555844
 23
189.7727146810271
 33
0.0
  0
MTEXT
  5
6F5
330
59A
100
AcDbEntity
  8
标注
100
AcDbMText
 10
194.0420299555844
 20
200.142793421186
 30
0.0
 40
0.65
 41
0.0
 71
     5
 72
     1
  1
\A1;20 3/4"
 11
0.0000000000000001
 21
1.0
 31
0.0
 73
     1
 44
1.0
1001
ACAD
1000
MTEXTBEGIN
1070
    73
1070
     1
1070
    44
1040
1.0
1070
    74
1070
     0
1000
MTEXTEND
  0
POINT
  5
6F6
330
59A
100
AcDbEntity
  8
Defpoints
 62
     0
100
AcDbPoint
 10
203.8790531621331
 20
210.5128721613448
 30
0.0
  0
POINT
  5
6F7
330
59A
100
AcDbEntity
  8
Defpoints
 62
     0
100
AcDbPoint
 10
203.8790531621331
 20
189.7727146810271
 30
0.0
  0
POINT
  5
6F8
330
59A
100
AcDbEntity
  8
Defpoints
 62
     0
100
AcDbPoint
 10
194.0420299555844
 20
189.7727146810271
 30
0.0
  0
ENDBLK
  5
5A6
330
59A
100
AcDbEntity
  8
0
100
AcDbBlockEnd
  0
BLOCK
  5
5B3
330
5A7
100
AcDbEntity
  8
0
100
AcDbBlockBegin
  2
*D2
 70
     1
 10
0.0
 20
0.0
 30
0.0
  3
*D2
  1

  0
LINE
  5
692
330
5A7
100
AcDbEntity
  8
标注
370
    -2
100
AcDbLine
 10
206.0560610361954
 20
209.5128721613449
 30
0.0
 11
196.1599907917767
 21
209.5128721613449
 31
0.0
  0
LINE
  5
693
330
5A7
100
AcDbEntity
  8
标注
370
    -2
100
AcDbLine
 10
202.9990531621331
 20
210.5128721613448
 30
0.0
 11
196.1599907917767
 21
210.5128721613448
 31
0.0
  0
LINE
  5
694
330
5A7
100
AcDbEntity
  8
标注
370
    -2
100
AcDbLine
 10
196.4799907917767
 20
208.8628721613449
 30
0.0
 11
196.4799907917767
 21
208.2128721613449
 31
0.0
  0
LINE
  5
695
330
5A7
100
AcDbEntity
  8
标注
370
    -2
100
AcDbLine
 10
196.4799907917767
 20
211.1628721613448
 30
0.0
 11
196.4799907917767
 21
211.8128721613448
 31
0.0
  0
LINE
  5
696
330
5A7
100
AcDbEntity
  8
标注
370
    -2
100
AcDbLine
 10
196.4799907917767
 20
209.5128721613449
 30
0.0
 11
196.4799907917767
 21
210.5128721613448
 31
0.0
  0
SOLID
  5
697
330
5A7
100
AcDbEntity
  8
标注
100
AcDbTrace
 10
196.3716574584434
 20
208.8628721613449
 30
0.0
 11
196.5883241251101
 21
208.8628721613449
 31
0.0
 12
196.4799907917767
 22
209.5128721613449
 32
0.0
 13
196.4799907917767
 23
209.5128721613449
 33
0.0
  0
SOLID
  5
698
330
5A7
100
AcDbEntity
  8
标注
100
AcDbTrace
 10
196.3716574584434
 20
211.1628721613448
 30
0.0
 11
196.5883241251101
 21
211.1628721613448
 31
0.0
 12
196.4799907917767
 22
210.5128721613448
 32
0.0
 13
196.4799907917767
 23
210.5128721613448
 33
0.0
  0
MTEXT
  5
699
330
5A7
100
AcDbEntity
  8
标注
100
AcDbMText
 10
196.4799907917767
 20
212.3378721613448
 30
0.0
 40
0.65
 41
0.0
 71
     5
 72
     1
  1
\A1;1"
 11
0.0000000000000001
 21
1.0
 31
0.0
 73
     1
 44
1.0
1001
ACAD
1000
MTEXTBEGIN
1070
    73
1070
     1
1070
    44
1040
1.0
1070
    74
1070
     0
1000
MTEXTEND
  0
POINT
  5
69A
330
5A7
100
AcDbEntity
  8
Defpoints
 62
     0
100
AcDbPoint
 10
206.9360610361954
 20
209.5128721613449
 30
0.0
  0
POINT
  5
69B
330
5A7
100
AcDbEntity
  8
Defpoints
 62
     0
100
AcDbPoint
 10
203.8790531621331
 20
210.5128721613448
 30
0.0
  0
POINT
  5
69C
330
5A7
100
AcDbEntity
  8
Defpoints
 62
     0
100
AcDbPoint
 10
196.4799907917767
 20
210.5128721613448
 30
0.0
  0
ENDBLK
  5
5B4
330
5A7
100
AcDbEntity
  8
0
100
AcDbBlockEnd
  0
BLOCK
  5
5C1
330
5B5
100
AcDbEntity
  8
0
100
AcDbBlockBegin
  2
*D3
 70
     1
 10
0.0
 20
0.0
 30
0.0
  3
*D3
  1

  0
LINE
  5
6A8
330
5B5
100
AcDbEntity
  8
标注
370
    -2
100
AcDbLine
 10
199.9420452881172
 20
199.2627934211875
 30
0.0
 11
199.9420452881172
 21
187.098589322541
 31
0.0
  0
LINE
  5
6A9
330
5B5
100
AcDbEntity
  8
标注
370
    -2
100
AcDbLine
 10
198.9420452881173
 20
193.8297225550427
 30
0.0
 11
198.9420452881173
 21
187.098589322541
 31
0.0
  0
LINE
  5
6AA
330
5B5
100
AcDbEntity
  8
标注
370
    -2
100
AcDbLine
 10
200.5920452881172
 20
187.418589322541
 30
0.0
 11
201.2420452881172
 21
187.418589322541
 31
0.0
  0
LINE
  5
6AB
330
5B5
100
AcDbEntity
  8
标注
370
    -2
100
AcDbLine
 10
198.2920452881172
 20
187.418589322541
 30
0.0
 11
197.6420452881173
 21
187.418589322541
 31
0.0
  0
LINE
  5
6AC
330
5B5
100
AcDbEntity
  8
标注
370
    -2
100
AcDbLine
 10
199.9420452881172
 20
187.418589322541
 30
0.0
 11
198.9420452881173
 21
187.418589322541
 31
0.0
  0
SOLID
  5
6AD
330
5B5
100
AcDbEntity
  8
标注
100
AcDbTrace
 10
200.5920452881172
 20
187.5269226558743
 30
0.0
 11
200.5920452881172
 21
187.3102559892076
 31
0.0
 12
199.9420452881172
 22
187.418589322541
 32
0.0
 13
199.9420452881172
 23
187.418589322541
 33
0.0
  0
SOLID
  5
6AE
330
5B5
100
AcDbEntity
  8
标注
100
AcDbTrace
 10
198.2920452881172
 20
187.5269226558743
 30
0.0
 11
198.2920452881172
 21
187.3102559892076
 31
0.0
 12
198.9420452881173
 22
187.418589322541
 32
0.0
 13
198.9420452881173
 23
187.418589322541
 33
0.0
  0
MTEXT
  5
6AF
330
5B5
100
AcDbEntity
  8
标注
100
AcDbMText
 10
197.1170452881173
 20
187.418589322541
 30
0.0
 40
0.65
 41
0.0
 71
     5
 72
     1
  1
\A1;1"
 73
     1
 44
1.0
1001
ACAD
1000
MTEXTBEGIN
1070
    73
1070
     1
1070
    44
1040
1.0
1070
    74
1070
     0
1000
MTEXTEND
  0
POINT
  5
6B0
330
5B5
100
AcDbEntity
  8
Defpoints
 62
     0
100
AcDbPoint
 10
199.9420452881172
 20
200.1427934211875
 30
0.0
  0
POINT
  5
6B1
330
5B5
100
AcDbEntity
  8
Defpoints
 62
     0
100
AcDbPoint
 10
198.9420452881173
 20
194.7097225550427
 30
0.0
  0
POINT
  5
6B2
330
5B5
100
AcDbEntity
  8
Defpoints
 62
     0
100
AcDbPoint
 10
198.9420452881173
 20
187.418589322541
 30
0.0
  0
ENDBLK
  5
5C2
330
5B5
100
AcDbEntity
  8
0
100
AcDbBlockEnd
  0
BLOCK
  5
5CE
330
5C3
100
AcDbEntity
  8
0
100
AcDbBlockBegin
  2
*D4
 70
     1
 10
0.0
 20
0.0
 30
0.0
  3
*D4
  1

  0
LINE
  5
5C4
330
5C3
100
AcDbEntity
  8
标注
370
    -2
100
AcDbLine
 10
203.0070067301248
 20
220.1817819961139
 30
0.0
 11
194.3504395567531
 21
220.1817819961139
 31
0.0
  0
LINE
  5
5C5
330
5C3
100
AcDbEntity
  8
标注
370
    -2
100
AcDbLine
 10
196.2672267399818
 20
230.1975300276099
 30
0.0
 11
194.3504395567531
 21
230.1975300276099
 31
0.0
  0
LINE
  5
5C6
330
5C3
100
AcDbEntity
  8
标注
370
    -2
100
AcDbLine
 10
194.6704395567531
 20
220.8317819961139
 30
0.0
 11
194.6704395567531
 21
224.3938226785286
 31
0.0
  0
LINE
  5
5C7
330
5C3
100
AcDbEntity
  8
标注
370
    -2
100
AcDbLine
 10
194.6704395567531
 20
229.5475300276099
 30
0.0
 11
194.6704395567531
 21
225.9854893451952
 31
0.0
  0
SOLID
  5
5C8
330
5C3
100
AcDbEntity
  8
标注
100
AcDbTrace
 10
194.5621062234197
 20
220.8317819961139
 30
0.0
 11
194.7787728900864
 21
220.8317819961139
 31
0.0
 12
194.6704395567531
 22
220.1817819961139
 32
0.0
 13
194.6704395567531
 23
220.1817819961139
 33
0.0
  0
SOLID
  5
5C9
330
5C3
100
AcDbEntity
  8
标注
100
AcDbTrace
 10
194.5621062234197
 20
229.5475300276099
 30
0.0
 11
194.7787728900864
 21
229.5475300276099
 31
0.0
 12
194.6704395567531
 22
230.1975300276099
 32
0.0
 13
194.6704395567531
 23
230.1975300276099
 33
0.0
  0
MTEXT
  5
5CA
330
5C3
100
AcDbEntity
  8
标注
100
AcDbMText
 10
194.670439556753
 20
225.1896560118619
 30
0.0
 40
0.65
 41
0.0
 71
     5
 72
     1
  1
\A1;10"
 11
0.0000000000000001
 21
1.0
 31
0.0
 73
     1
 44
1.0
1001
ACAD
1000
MTEXTBEGIN
1070
    73
1070
     1
1070
    44
1040
1.0
1070
    74
1070
     0
1000
MTEXTEND
  0
POINT
  5
5CB
330
5C3
100
AcDbEntity
  8
Defpoints
 62
     0
100
AcDbPoint
 10
203.8870067301248
 20
220.1817819961139
 30
0.0
  0
POINT
  5
5CC
330
5C3
100
AcDbEntity
  8
Defpoints
 62
     0
100
AcDbPoint
 10
197.1472267399818
 20
230.1975300276099
 30
0.0
  0
POINT
  5
5CD
330
5C3
100
AcDbEntity
  8
Defpoints
 62
     0
100
AcDbPoint
 10
194.6704395567531
 20
230.1975300276099
 30
0.0
  0
ENDBLK
  5
5CF
330
5C3
100
AcDbEntity
  8
0
100
AcDbBlockEnd
  0
BLOCK
  5
5D6
330
5D0
100
AcDbEntity
  8
0
100
AcDbBlockBegin
  2
*D5
 70
     1
 10
0.0
 20
0.0
 30
0.0
  3
*D5
  1

  0
LINE
  5
5D1
330
5D0
100
AcDbEntity
  8
标注
370
    -2
100
AcDbLine
 10
200.0446062196895
 20
222.038461727769
 30
0.0
 11
199.4959662198399
 21
221.6899016173645
 31
0.0
  0
MTEXT
  5
5D2
330
5D0
100
AcDbEntity
  8
标注
100
AcDbMText
 10
200.8534985271599
 20
222.5523644546473
 30
0.0
 40
0.65
 41
0.0
 71
     5
 72
     1
  1
\A1;R2"
 11
0.8440615382299974
 21
0.53624632369911
 31
0.0
 73
     1
 44
1.0
1001
ACAD
1000
MTEXTBEGIN
1070
    73
1070
     1
1070
    44
1040
1.0
1070
    74
1070
     0
1000
MTEXTEND
  0
SOLID
  5
5D3
330
5D0
100
AcDbEntity
  8
标注
100
AcDbTrace
 10
199.4378728681058
 20
221.7813416173394
 30
0.0
 11
199.554059571574
 21
221.5984616173896
 31
0.0
 12
198.9473262199904
 22
221.3413415069601
 32
0.0
 13
198.9473262199904
 23
221.3413415069601
 33
0.0
  0
POINT
  5
5D4
330
5D0
100
AcDbEntity
  8
Defpoints
 62
     0
100
AcDbPoint
 10
198.9473262199904
 20
221.3413415069601
 30
0.0
  0
POINT
  5
5D5
330
5D0
100
AcDbEntity
  8
Defpoints
 62
     0
100
AcDbPoint
 10
200.6354492964505
 20
222.4138341543584
 30
0.0
  0
ENDBLK
  5
5D7
330
5D0
100
AcDbEntity
  8
0
100
AcDbBlockEnd
  0
BLOCK
  5
5E3
330
5D8
100
AcDbEntity
  8
0
100
AcDbBlockBegin
  2
*D6
 70
     1
 10
0.0
 20
0.0
 30
0.0
  3
*D6
  1

  0
LINE
  5
6DB
330
5D8
100
AcDbEntity
  8
标注
370
    -2
100
AcDbLine
 10
227.2866122172511
 20
208.3081477519077
 30
0.0
 11
236.3431978353523
 21
208.3081477519077
 31
0.0
  0
LINE
  5
6DC
330
5D8
100
AcDbEntity
  8
标注
370
    -2
100
AcDbLine
 10
227.2866122172511
 20
189.7727146810437
 30
0.0
 11
236.3431978353522
 21
189.7727146810437
 31
0.0
  0
LINE
  5
6DD
330
5D8
100
AcDbEntity
  8
标注
370
    -2
100
AcDbLine
 10
236.0231978353523
 20
207.6581477519077
 30
0.0
 11
236.0231978353523
 21
201.0820978831424
 31
0.0
  0
LINE
  5
6DE
330
5D8
100
AcDbEntity
  8
标注
370
    -2
100
AcDbLine
 10
236.0231978353521
 20
190.4227146810437
 30
0.0
 11
236.0231978353523
 21
196.998764549809
 31
0.0
  0
SOLID
  5
6DF
330
5D8
100
AcDbEntity
  8
标注
100
AcDbTrace
 10
235.9148645020189
 20
207.6581477519077
 30
0.0
 11
236.1315311686856
 21
207.6581477519077
 31
0.0
 12
236.0231978353523
 22
208.3081477519077
 32
0.0
 13
236.0231978353523
 23
208.3081477519077
 33
0.0
  0
SOLID
  5
6E0
330
5D8
100
AcDbEntity
  8
标注
100
AcDbTrace
 10
235.9148645020189
 20
190.4227146810437
 30
0.0
 11
236.1315311686856
 21
190.4227146810437
 31
0.0
 12
236.0231978353521
 22
189.7727146810437
 32
0.0
 13
236.0231978353521
 23
189.7727146810437
 33
0.0
  0
MTEXT
  5
6E1
330
5D8
100
AcDbEntity
  8
标注
100
AcDbMText
 10
236.0231978353521
 20
199.0404312164756
 30
0.0
 40
0.65
 41
0.0
 71
     5
 72
     1
  1
\A1;18 1/2"
 11
0.0000000000000001
 21
1.0
 31
0.0
 73
     1
 44
1.0
1001
ACAD
1000
MTEXTBEGIN
1070
    73
1070
     1
1070
    44
1040
1.0
1070
    74
1070
     0
1000
MTEXTEND
  0
POINT
  5
6E2
330
5D8
100
AcDbEntity
  8
Defpoints
 62
     0
100
AcDbPoint
 10
226.4066122172511
 20
208.3081477519077
 30
0.0
  0
POINT
  5
6E3
330
5D8
100
AcDbEntity
  8
Defpoints
 62
     0
100
AcDbPoint
 10
226.4066122172511
 20
189.7727146810437
 30
0.0
  0
POINT
  5
6E4
330
5D8
100
AcDbEntity
  8
Defpoints
 62
     0
100
AcDbPoint
 10
236.0231978353521
 20
189.7727146810437
 30
0.0
  0
ENDBLK
  5
5E4
330
5D8
100
AcDbEntity
  8
0
100
AcDbBlockEnd
  0
BLOCK
  5
5F0
330
5E5
100
AcDbEntity
  8
0
100
AcDbBlockBegin
  2
*D7
 70
     1
 10
0.0
 20
0.0
 30
0.0
  3
*D7
  1

  0
LINE
  5
722
330
5E5
100
AcDbEntity
  8
标注
370
    -2
100
AcDbLine
 10
224.3338563117393
 20
207.3081477519076
 30
0.0
 11
234.0020369199558
 21
207.3081477519076
 31
0.0
  0
LINE
  5
723
330
5E5
100
AcDbEntity
  8
标注
370
    -2
100
AcDbLine
 10
224.3338563117393
 20
190.7727146810413
 30
0.0
 11
234.0020369199558
 21
190.7727146810413
 31
0.0
  0
LINE
  5
724
330
5E5
100
AcDbEntity
  8
标注
370
    -2
100
AcDbLine
 10
233.6820369199559
 20
206.6581477519076
 30
0.0
 11
233.6820369199559
 21
201.0820978831411
 31
0.0
  0
LINE
  5
725
330
5E5
100
AcDbEntity
  8
标注
370
    -2
100
AcDbLine
 10
233.6820369199558
 20
191.4227146810413
 30
0.0
 11
233.6820369199559
 21
196.9987645498078
 31
0.0
  0
SOLID
  5
726
330
5E5
100
AcDbEntity
  8
标注
100
AcDbTrace
 10
233.5737035866225
 20
206.6581477519076
 30
0.0
 11
233.7903702532892
 21
206.6581477519076
 31
0.0
 12
233.6820369199559
 22
207.3081477519076
 32
0.0
 13
233.6820369199559
 23
207.3081477519076
 33
0.0
  0
SOLID
  5
727
330
5E5
100
AcDbEntity
  8
标注
100
AcDbTrace
 10
233.5737035866225
 20
191.4227146810413
 30
0.0
 11
233.7903702532892
 21
191.4227146810413
 31
0.0
 12
233.6820369199558
 22
190.7727146810413
 32
0.0
 13
233.6820369199558
 23
190.7727146810413
 33
0.0
  0
MTEXT
  5
728
330
5E5
100
AcDbEntity
  8
标注
100
AcDbMText
 10
233.6820369199558
 20
199.0404312164745
 30
0.0
 40
0.65
 41
0.0
 71
     5
 72
     1
  1
\A1;16 1/2"
 11
0.0000000000000001
 21
1.0
 31
0.0
 73
     1
 44
1.0
1001
ACAD
1000
MTEXTBEGIN
1070
    73
1070
     1
1070
    44
1040
1.0
1070
    74
1070
     0
1000
MTEXTEND
  0
POINT
  5
729
330
5E5
100
AcDbEntity
  8
Defpoints
 62
     0
100
AcDbPoint
 10
223.4538563117393
 20
207.3081477519076
 30
0.0
  0
POINT
  5
72A
330
5E5
100
AcDbEntity
  8
Defpoints
 62
     0
100
AcDbPoint
 10
223.4538563117393
 20
190.7727146810413
 30
0.0
  0
POINT
  5
72B
330
5E5
100
AcDbEntity
  8
Defpoints
 62
     0
100
AcDbPoint
 10
233.6820369199558
 20
190.7727146810413
 30
0.0
  0
ENDBLK
  5
5F1
330
5E5
100
AcDbEntity
  8
0
100
AcDbBlockEnd
  0
BLOCK
  5
607
330
5FC
100
AcDbEntity
  8
0
100
AcDbBlockBegin
  2
*D8
 70
     1
 10
0.0
 20
0.0
 30
0.0
  3
*D8
  1

  0
LINE
  5
72C
330
5FC
100
AcDbEntity
  8
标注
370
    -2
100
AcDbLine
 10
206.9360610361954
 20
209.5128721613449
 30
0.0
 11
196.1599907917768
 21
209.5128721613449
 31
0.0
  0
LINE
  5
72D
330
5FC
100
AcDbEntity
  8
标注
370
    -2
100
AcDbLine
 10
206.9360610362225
 20
190.7727146810299
 30
0.0
 11
196.1599907917768
 21
190.7727146810299
 31
0.0
  0
LINE
  5
72E
330
5FC
100
AcDbEntity
  8
标注
370
    -2
100
AcDbLine
 10
196.4799907917768
 20
208.8628721613449
 30
0.0
 11
196.4799907917768
 21
202.2927934211875
 31
0.0
  0
LINE
  5
72F
330
5FC
100
AcDbEntity
  8
标注
370
    -2
100
AcDbLine
 10
196.4799907917768
 20
191.4227146810299
 30
0.0
 11
196.4799907917768
 21
197.9927934211874
 31
0.0
  0
SOLID
  5
730
330
5FC
100
AcDbEntity
  8
标注
100
AcDbTrace
 10
196.3716574584435
 20
208.8628721613449
 30
0.0
 11
196.5883241251102
 21
208.8628721613449
 31
0.0
 12
196.4799907917768
 22
209.5128721613449
 32
0.0
 13
196.4799907917768
 23
209.5128721613449
 33
0.0
  0
SOLID
  5
731
330
5FC
100
AcDbEntity
  8
标注
100
AcDbTrace
 10
196.3716574584435
 20
191.4227146810299
 30
0.0
 11
196.5883241251101
 21
191.4227146810299
 31
0.0
 12
196.4799907917768
 22
190.7727146810299
 32
0.0
 13
196.4799907917768
 23
190.7727146810299
 33
0.0
  0
MTEXT
  5
732
330
5FC
100
AcDbEntity
  8
标注
100
AcDbMText
 10
196.4799907917768
 20
200.1427934211875
 30
0.0
 40
0.65
 41
0.0
 71
     5
 72
     1
  1
\A1;18 3/4"
 11
0.0000000000000001
 21
1.0
 31
0.0
 73
     1
 44
1.0
1001
ACAD
1000
MTEXTBEGIN
1070
    73
1070
     1
1070
    44
1040
1.0
1070
    74
1070
     0
1000
MTEXTEND
  0
POINT
  5
733
330
5FC
100
AcDbEntity
  8
Defpoints
 62
     0
100
AcDbPoint
 10
207.8160610361954
 20
209.5128721613449
 30
0.0
  0
POINT
  5
734
330
5FC
100
AcDbEntity
  8
Defpoints
 62
     0
100
AcDbPoint
 10
207.8160610362225
 20
190.7727146810299
 30
0.0
  0
POINT
  5
735
330
5FC
100
AcDbEntity
  8
Defpoints
 62
     0
100
AcDbPoint
 10
196.4799907917768
 20
190.7727146810299
 30
0.0
  0
ENDBLK
  5
608
330
5FC
100
AcDbEntity
  8
0
100
AcDbBlockEnd
  0
BLOCK
  5
614
330
609
100
AcDbEntity
  8
0
100
AcDbBlockBegin
  2
*D9
 70
     1
 10
0.0
 20
0.0
 30
0.0
  3
*D9
  1

  0
LINE
  5
60A
330
609
100
AcDbEntity
  8
标注
370
    -2
100
AcDbLine
 10
230.0351007557297
 20
230.1975300276099
 30
0.0
 11
232.1670028484299
 21
230.1975300276099
 31
0.0
  0
LINE
  5
60B
330
609
100
AcDbEntity
  8
标注
370
    -2
100
AcDbLine
 10
224.7670067301261
 20
222.2290260906021
 30
0.0
 11
232.1670028484299
 21
222.2290260906021
 31
0.0
  0
LINE
  5
60C
330
609
100
AcDbEntity
  8
标注
370
    -2
100
AcDbLine
 10
231.8470028484298
 20
229.5475300276099
 30
0.0
 11
231.8470028484298
 21
226.8466113924393
 31
0.0
  0
LINE
  5
60D
330
609
100
AcDbEntity
  8
标注
370
    -2
100
AcDbLine
 10
231.8470028484298
 20
222.8790260906021
 30
0.0
 11
231.8470028484298
 21
225.5799447257726
 31
0.0
  0
SOLID
  5
60E
330
609
100
AcDbEntity
  8
标注
100
AcDbTrace
 10
231.7386695150966
 20
229.5475300276099
 30
0.0
 11
231.9553361817632
 21
229.5475300276099
 31
0.0
 12
231.8470028484298
 22
230.1975300276099
 32
0.0
 13
231.8470028484298
 23
230.1975300276099
 33
0.0
  0
SOLID
  5
60F
330
609
100
AcDbEntity
  8
标注
100
AcDbTrace
 10
231.7386695150966
 20
222.8790260906021
 30
0.0
 11
231.9553361817632
 21
222.8790260906021
 31
0.0
 12
231.8470028484298
 22
222.2290260906021
 32
0.0
 13
231.8470028484298
 23
222.2290260906021
 33
0.0
  0
MTEXT
  5
610
330
609
100
AcDbEntity
  8
标注
100
AcDbMText
 10
231.8470028484298
 20
226.213278059106
 30
0.0
 40
0.65
 41
0.0
 71
     5
 72
     1
  1
\A1;8"
 11
0.0000000000000001
 21
1.0
 31
0.0
 73
     1
 44
1.0
1001
ACAD
1000
MTEXTBEGIN
1070
    73
1070
     1
1070
    44
1040
1.0
1070
    74
1070
     0
1000
MTEXTEND
  0
POINT
  5
611
330
609
100
AcDbEntity
  8
Defpoints
 62
     0
100
AcDbPoint
 10
229.1551007557298
 20
230.1975300276099
 30
0.0
  0
POINT
  5
612
330
609
100
AcDbEntity
  8
Defpoints
 62
     0
100
AcDbPoint
 10
223.8870067301261
 20
222.2290260906021
 30
0.0
  0
POINT
  5
613
330
609
100
AcDbEntity
  8
Defpoints
 62
     0
100
AcDbPoint
 10
231.8470028484298
 20
222.2290260906021
 30
0.0
  0
ENDBLK
  5
615
330
609
100
AcDbEntity
  8
0
100
AcDbBlockEnd
  0
BLOCK
  5
622
330
616
100
AcDbEntity
  8
0
100
AcDbBlockBegin
  2
*D10
 70
     1
 10
0.0
 20
0.0
 30
0.0
  3
*D10
  1

  0
LINE
  5
687
330
616
100
AcDbEntity
  8
标注
370
    -2
100
AcDbLine
 10
225.2138563117393
 20
190.7727146810413
 30
0.0
 11
234.0020369199558
 21
190.7727146810413
 31
0.0
  0
LINE
  5
688
330
616
100
AcDbEntity
  8
标注
370
    -2
100
AcDbLine
 10
227.2866122172545
 20
189.7727146810437
 30
0.0
 11
234.0020369199558
 21
189.7727146810437
 31
0.0
  0
LINE
  5
689
330
616
100
AcDbEntity
  8
标注
370
    -2
100
AcDbLine
 10
233.6820369199558
 20
191.4227146810414
 30
0.0
 11
233.6820369199558
 21
192.0727146810414
 31
0.0
  0
LINE
  5
68A
330
616
100
AcDbEntity
  8
标注
370
    -2
100
AcDbLine
 10
233.6820369199558
 20
189.1227146810437
 30
0.0
 11
233.6820369199558
 21
188.4727146810437
 31
0.0
  0
LINE
  5
68B
330
616
100
AcDbEntity
  8
标注
370
    -2
100
AcDbLine
 10
233.6820369199558
 20
190.7727146810413
 30
0.0
 11
233.6820369199558
 21
189.7727146810437
 31
0.0
  0
SOLID
  5
68C
330
616
100
AcDbEntity
  8
标注
100
AcDbTrace
 10
233.5737035866225
 20
191.4227146810414
 30
0.0
 11
233.7903702532891
 21
191.4227146810414
 31
0.0
 12
233.6820369199558
 22
190.7727146810413
 32
0.0
 13
233.6820369199558
 23
190.7727146810413
 33
0.0
  0
SOLID
  5
68D
330
616
100
AcDbEntity
  8
标注
100
AcDbTrace
 10
233.5737035866225
 20
189.1227146810437
 30
0.0
 11
233.7903702532891
 21
189.1227146810437
 31
0.0
 12
233.6820369199558
 22
189.7727146810437
 32
0.0
 13
233.6820369199558
 23
189.7727146810437
 33
0.0
  0
MTEXT
  5
68E
330
616
100
AcDbEntity
  8
标注
100
AcDbMText
 10
233.6820369199558
 20
187.9477146810437
 30
0.0
 40
0.65
 41
0.0
 71
     5
 72
     1
  1
\A1;1"
 11
0.0000000000000001
 21
1.0
 31
0.0
 73
     1
 44
1.0
1001
ACAD
1000
MTEXTBEGIN
1070
    73
1070
     1
1070
    44
1040
1.0
1070
    74
1070
     0
1000
MTEXTEND
  0
POINT
  5
68F
330
616
100
AcDbEntity
  8
Defpoints
 62
     0
100
AcDbPoint
 10
224.3338563117393
 20
190.7727146810413
 30
0.0
  0
POINT
  5
690
330
616
100
AcDbEntity
  8
Defpoints
 62
     0
100
AcDbPoint
 10
226.4066122172545
 20
189.7727146810437
 30
0.0
  0
POINT
  5
691
330
616
100
AcDbEntity
  8
Defpoints
 62
     0
100
AcDbPoint
 10
233.6820369199558
 20
189.7727146810437
 30
0.0
  0
ENDBLK
  5
623
330
616
100
AcDbEntity
  8
0
100
AcDbBlockEnd
  0
BLOCK
  5
63B
330
62F
100
AcDbEntity
  8
0
100
AcDbBlockBegin
  2
*D11
 70
     1
 10
0.0
 20
0.0
 30
0.0
  3
*D11
  1

  0
LINE
  5
703
330
62F
100
AcDbEntity
  8
标注
370
    -2
100
AcDbLine
 10
216.9577933196132
 20
199.9204312164755
 30
0.0
 11
216.9577933196132
 21
199.5827934211874
 31
0.0
  0
LINE
  5
704
330
62F
100
AcDbEntity
  8
标注
370
    -2
100
AcDbLine
 10
215.6900767841802
 20
199.9204312164755
 30
0.0
 11
215.6900767841802
 21
199.5827934211874
 31
0.0
  0
LINE
  5
705
330
62F
100
AcDbEntity
  8
标注
370
    -2
100
AcDbLine
 10
217.6077933196132
 20
199.2627934211874
 30
0.0
 11
218.2577933196132
 21
199.2627934211874
 31
0.0
  0
LINE
  5
706
330
62F
100
AcDbEntity
  8
标注
370
    -2
100
AcDbLine
 10
215.0400767841802
 20
199.2627934211874
 30
0.0
 11
214.3900767841802
 21
199.2627934211874
 31
0.0
  0
LINE
  5
707
330
62F
100
AcDbEntity
  8
标注
370
    -2
100
AcDbLine
 10
216.9577933196132
 20
199.2627934211874
 30
0.0
 11
215.6900767841802
 21
199.2627934211874
 31
0.0
  0
SOLID
  5
708
330
62F
100
AcDbEntity
  8
标注
100
AcDbTrace
 10
217.6077933196132
 20
199.3711267545207
 30
0.0
 11
217.6077933196132
 21
199.1544600878541
 31
0.0
 12
216.9577933196132
 22
199.2627934211874
 32
0.0
 13
216.9577933196132
 23
199.2627934211874
 33
0.0
  0
SOLID
  5
709
330
62F
100
AcDbEntity
  8
标注
100
AcDbTrace
 10
215.0400767841802
 20
199.3711267545207
 30
0.0
 11
215.0400767841802
 21
199.1544600878541
 31
0.0
 12
215.6900767841802
 22
199.2627934211874
 32
0.0
 13
215.6900767841802
 23
199.2627934211874
 33
0.0
  0
MTEXT
  5
70A
330
62F
100
AcDbEntity
  8
标注
100
AcDbMText
 10
212.6734101175135
 20
199.2627934211874
 30
0.0
 40
0.65
 41
0.0
 71
     5
 72
     1
  1
\A1;1 1/4"
 73
     1
 44
1.0
1001
ACAD
1000
MTEXTBEGIN
1070
    73
1070
     1
1070
    44
1040
1.0
1070
    74
1070
     0
1000
MTEXTEND
  0
POINT
  5
70B
330
62F
100
AcDbEntity
  8
Defpoints
 62
     0
100
AcDbPoint
 10
216.9577933196132
 20
199.0404312164755
 30
0.0
  0
POINT
  5
70C
330
62F
100
AcDbEntity
  8
Defpoints
 62
     0
100
AcDbPoint
 10
215.6900767841802
 20
199.0404312164755
 30
0.0
  0
POINT
  5
70D
330
62F
100
AcDbEntity
  8
Defpoints
 62
     0
100
AcDbPoint
 10
215.6900767841802
 20
199.2627934211874
 30
0.0
  0
ENDBLK
  5
63C
330
62F
100
AcDbEntity
  8
0
100
AcDbBlockEnd
  0
BLOCK
  5
64E
330
648
100
AcDbEntity
  8
0
100
AcDbBlockBegin
  2
*D12
 70
     1
 10
0.0
 20
0.0
 30
0.0
  3
*D12
  1

  0
LINE
  5
70E
330
648
100
AcDbEntity
  8
标注
370
    -2
100
AcDbLine
 10
227.9048223557279
 20
193.0095116021615
 30
0.0
 11
228.4031702671254
 21
192.5921995376272
 31
0.0
  0
MTEXT
  5
70F
330
648
100
AcDbEntity
  8
标注
100
AcDbMText
 10
226.2564408026443
 20
194.3898515079288
 30
0.0
 40
0.65
 41
0.0
 71
     5
 72
     1
  1
\A1;R3 1/2"
 11
0.766689094457507
 21
-0.6420185608219812
 31
0.0
 73
     1
 44
1.0
1001
ACAD
1000
MTEXTBEGIN
1070
    73
1070
     1
1070
    44
1040
1.0
1070
    74
1070
     0
1000
MTEXTEND
  0
SOLID
  5
710
330
648
100
AcDbEntity
  8
标注
100
AcDbTrace
 10
228.4727222778812
 20
192.6752575228601
 30
0.0
 11
228.3336182563697
 21
192.5091415523943
 31
0.0
 12
228.9015181785228
 22
192.1748874730929
 32
0.0
 13
228.9015181785228
 23
192.1748874730929
 33
0.0
  0
POINT
  5
711
330
648
100
AcDbEntity
  8
Defpoints
 62
     0
100
AcDbPoint
 10
228.9015181785228
 20
192.1748874730929
 30
0.0
  0
POINT
  5
712
330
648
100
AcDbEntity
  8
Defpoints
 62
     0
100
AcDbPoint
 10
226.1849032769017
 20
194.4497563893912
 30
0.0
  0
ENDBLK
  5
64F
330
648
100
AcDbEntity
  8
0
100
AcDbBlockEnd
  0
BLOCK
  5
656
330
650
100
AcDbEntity
  8
0
100
AcDbBlockBegin
  2
*D13
 70
     1
 10
0.0
 20
0.0
 30
0.0
  3
*D13
  1

  0
LINE
  5
713
330
650
100
AcDbEntity
  8
标注
370
    -2
100
AcDbLine
 10
213.5636893071532
 20
193.1615283372782
 30
0.0
 11
214.0615206190872
 21
192.7436001318911
 31
0.0
  0
MTEXT
  5
714
330
650
100
AcDbEntity
  8
标注
100
AcDbMText
 10
211.8340446208183
 20
194.6135609483025
 30
0.0
 40
0.65
 41
0.0
 71
     5
 72
     1
  1
\A1;R3 7/8"
 11
0.7658943260523478
 21
-0.6429664698262424
 31
0.0
 73
     1
 44
1.0
1001
ACAD
1000
MTEXTBEGIN
1070
    73
1070
     1
1070
    44
1040
1.0
1070
    74
1070
     0
1000
MTEXTEND
  0
SOLID
  5
715
330
650
100
AcDbEntity
  8
标注
100
AcDbTrace
 10
214.131175319985
 20
192.8265720172134
 30
0.0
 11
213.9918659181894
 21
192.6606282465688
 31
0.0
 12
214.5593519310212
 22
192.325671926504
 32
0.0
 13
214.5593519310212
 23
192.325671926504
 33
0.0
  0
POINT
  5
716
330
650
100
AcDbEntity
  8
Defpoints
 62
     0
100
AcDbPoint
 10
214.5593519310212
 20
192.325671926504
 30
0.0
  0
POINT
  5
717
330
650
100
AcDbEntity
  8
Defpoints
 62
     0
100
AcDbPoint
 10
211.5440199386891
 20
194.8570359809381
 30
0.0
  0
ENDBLK
  5
657
330
650
100
AcDbEntity
  8
0
100
AcDbBlockEnd
  0
BLOCK
  5
663
330
658
100
AcDbEntity
  8
0
100
AcDbBlockBegin
  2
*D14
 70
     1
 10
0.0
 20
0.0
 30
0.0
  3
*D14
  1

  0
LINE
  5
6BD
330
658
100
AcDbEntity
  8
标注
370
    -2
100
AcDbLine
 10
198.9420452881173
 20
193.8297225550427
 30
0.0
 11
198.9420452881173
 21
184.8511816833898
 31
0.0
  0
LINE
  5
6BE
330
658
100
AcDbEntity
  8
标注
370
    -2
100
AcDbLine
 10
230.9499193038652
 20
193.4360217676578
 30
0.0
 11
230.9499193038652
 21
184.8511816833898
 31
0.0
  0
LINE
  5
6BF
330
658
100
AcDbEntity
  8
标注
370
    -2
100
AcDbLine
 10
199.5920452881172
 20
185.1711816833899
 30
0.0
 11
213.9876489626579
 21
185.1711816833899
 31
0.0
  0
LINE
  5
6C0
330
658
100
AcDbEntity
  8
标注
370
    -2
100
AcDbLine
 10
230.2999193038652
 20
185.1711816833899
 30
0.0
 11
215.9043156293246
 21
185.1711816833899
 31
0.0
  0
SOLID
  5
6C1
330
658
100
AcDbEntity
  8
标注
100
AcDbTrace
 10
199.5920452881172
 20
185.2795150167231
 30
0.0
 11
199.5920452881172
 21
185.0628483500566
 31
0.0
 12
198.9420452881173
 22
185.1711816833899
 32
0.0
 13
198.9420452881173
 23
185.1711816833899
 33
0.0
  0
SOLID
  5
6C2
330
658
100
AcDbEntity
  8
标注
100
AcDbTrace
 10
230.2999193038652
 20
185.2795150167231
 30
0.0
 11
230.2999193038652
 21
185.0628483500566
 31
0.0
 12
230.9499193038652
 22
185.1711816833899
 32
0.0
 13
230.9499193038652
 23
185.1711816833899
 33
0.0
  0
MTEXT
  5
6C3
330
658
100
AcDbEntity
  8
标注
100
AcDbMText
 10
214.9459822959913
 20
185.1711816833899
 30
0.0
 40
0.65
 41
0.0
 71
     5
 72
     1
  1
\A1;32"
 73
     1
 44
1.0
1001
ACAD
1000
MTEXTBEGIN
1070
    73
1070
     1
1070
    44
1040
1.0
1070
    74
1070
     0
1000
MTEXTEND
  0
POINT
  5
6C4
330
658
100
AcDbEntity
  8
Defpoints
 62
     0
100
AcDbPoint
 10
198.9420452881173
 20
194.7097225550427
 30
0.0
  0
POINT
  5
6C5
330
658
100
AcDbEntity
  8
Defpoints
 62
     0
100
AcDbPoint
 10
230.9499193038652
 20
194.3160217676578
 30
0.0
  0
POINT
  5
6C6
330
658
100
AcDbEntity
  8
Defpoints
 62
     0
100
AcDbPoint
 10
230.9499193038652
 20
185.1711816833899
 30
0.0
  0
ENDBLK
  5
664
330
658
100
AcDbEntity
  8
0
100
AcDbBlockEnd
  0
BLOCK
  5
670
330
665
100
AcDbEntity
  8
0
100
AcDbBlockBegin
  2
*D15
 70
     1
 10
0.0
 20
0.0
 30
0.0
  3
*D15
  1

  0
LINE
  5
6C7
330
665
100
AcDbEntity
  8
标注
370
    -2
100
AcDbLine
 10
216.9577933196133
 20
198.1604312164755
 30
0.0
 11
216.9577933196133
 21
187.0945799508261
 31
0.0
  0
LINE
  5
6C8
330
665
100
AcDbEntity
  8
标注
370
    -2
100
AcDbLine
 10
229.9499193038652
 20
198.1604312164745
 30
0.0
 11
229.9499193038652
 21
187.0945799508261
 31
0.0
  0
LINE
  5
6C9
330
665
100
AcDbEntity
  8
标注
370
    -2
100
AcDbLine
 10
217.6077933196133
 20
187.4145799508261
 30
0.0
 11
222.6038563117392
 21
187.4145799508261
 31
0.0
  0
LINE
  5
6CA
330
665
100
AcDbEntity
  8
标注
370
    -2
100
AcDbLine
 10
229.2999193038652
 20
187.4145799508261
 30
0.0
 11
224.3038563117392
 21
187.4145799508261
 31
0.0
  0
SOLID
  5
6CB
330
665
100
AcDbEntity
  8
标注
100
AcDbTrace
 10
217.6077933196133
 20
187.5229132841594
 30
0.0
 11
217.6077933196133
 21
187.3062466174928
 31
0.0
 12
216.9577933196133
 22
187.4145799508261
 32
0.0
 13
216.9577933196133
 23
187.4145799508261
 33
0.0
  0
SOLID
  5
6CC
330
665
100
AcDbEntity
  8
标注
100
AcDbTrace
 10
229.2999193038652
 20
187.5229132841594
 30
0.0
 11
229.2999193038652
 21
187.3062466174928
 31
0.0
 12
229.9499193038652
 22
187.4145799508261
 32
0.0
 13
229.9499193038652
 23
187.4145799508261
 33
0.0
  0
MTEXT
  5
6CD
330
665
100
AcDbEntity
  8
标注
100
AcDbMText
 10
223.4538563117392
 20
187.4145799508261
 30
0.0
 40
0.65
 41
0.0
 71
     5
 72
     1
  1
\A1;13"
 73
     1
 44
1.0
1001
ACAD
1000
MTEXTBEGIN
1070
    73
1070
     1
1070
    44
1040
1.0
1070
    74
1070
     0
1000
MTEXTEND
  0
POINT
  5
6CE
330
665
100
AcDbEntity
  8
Defpoints
 62
     0
100
AcDbPoint
 10
216.9577933196133
 20
199.0404312164755
 30
0.0
  0
POINT
  5
6CF
330
665
100
AcDbEntity
  8
Defpoints
 62
     0
100
AcDbPoint
 10
229.9499193038652
 20
199.0404312164745
 30
0.0
  0
POINT
  5
6D0
330
665
100
AcDbEntity
  8
Defpoints
 62
     0
100
AcDbPoint
 10
229.9499193038652
 20
187.4145799508261
 30
0.0
  0
ENDBLK
  5
671
330
665
100
AcDbEntity
  8
0
100
AcDbBlockEnd
  0
BLOCK
  5
67D
330
672
100
AcDbEntity
  8
0
100
AcDbBlockBegin
  2
*D16
 70
     1
 10
0.0
 20
0.0
 30
0.0
  3
*D16
  1

  0
LINE
  5
718
330
672
100
AcDbEntity
  8
标注
370
    -2
100
AcDbLine
 10
199.9420452881172
 20
199.2627934211875
 30
0.0
 11
199.9420452881172
 21
187.098589322541
 31
0.0
  0
LINE
  5
719
330
672
100
AcDbEntity
  8
标注
370
    -2
100
AcDbLine
 10
215.6900767841802
 20
199.2627934211875
 30
0.0
 11
215.6900767841802
 21
187.098589322541
 31
0.0
  0
LINE
  5
71A
330
672
100
AcDbEntity
  8
标注
370
    -2
100
AcDbLine
 10
200.5920452881172
 20
187.418589322541
 30
0.0
 11
205.6660610361487
 21
187.418589322541
 31
0.0
  0
LINE
  5
71B
330
672
100
AcDbEntity
  8
标注
370
    -2
100
AcDbLine
 10
215.0400767841802
 20
187.418589322541
 30
0.0
 11
209.9660610361487
 21
187.418589322541
 31
0.0
  0
SOLID
  5
71C
330
672
100
AcDbEntity
  8
标注
100
AcDbTrace
 10
200.5920452881172
 20
187.5269226558743
 30
0.0
 11
200.5920452881172
 21
187.3102559892076
 31
0.0
 12
199.9420452881172
 22
187.418589322541
 32
0.0
 13
199.9420452881172
 23
187.418589322541
 33
0.0
  0
SOLID
  5
71D
330
672
100
AcDbEntity
  8
标注
100
AcDbTrace
 10
215.0400767841802
 20
187.5269226558743
 30
0.0
 11
215.0400767841802
 21
187.3102559892076
 31
0.0
 12
215.6900767841802
 22
187.418589322541
 32
0.0
 13
215.6900767841802
 23
187.418589322541
 33
0.0
  0
MTEXT
  5
71E
330
672
100
AcDbEntity
  8
标注
100
AcDbMText
 10
207.8160610361487
 20
187.418589322541
 30
0.0
 40
0.65
 41
0.0
 71
     5
 72
     1
  1
\A1;15 3/4"
 73
     1
 44
1.0
1001
ACAD
1000
MTEXTBEGIN
1070
    73
1070
     1
1070
    44
1040
1.0
1070
    74
1070
     0
1000
MTEXTEND
  0
POINT
  5
71F
330
672
100
AcDbEntity
  8
Defpoints
 62
     0
100
AcDbPoint
 10
199.9420452881172
 20
200.1427934211875
 30
0.0
  0
POINT
  5
720
330
672
100
AcDbEntity
  8
Defpoints
 62
     0
100
AcDbPoint
 10
215.6900767841802
 20
200.1427934211875
 30
0.0
  0
POINT
  5
721
330
672
100
AcDbEntity
  8
Defpoints
 62
     0
100
AcDbPoint
 10
215.6900767841802
 20
187.418589322541
 30
0.0
  0
ENDBLK
  5
67E
330
672
100
AcDbEntity
  8
0
100
AcDbBlockEnd
  0
BLOCK
  5
685
330
67F
100
AcDbEntity
  8
0
100
AcDbBlockBegin
  2
*D17
 70
     1
 10
0.0
 20
0.0
 30
0.0
  3
*D17
  1

  0
LINE
  5
680
330
67F
100
AcDbEntity
  8
标注
370
    -2
100
AcDbLine
 10
216.909699555007
 20
223.9467469862881
 30
0.0
 11
216.3942130147025
 21
223.550800491462
 31
0.0
  0
MTEXT
  5
681
330
67F
100
AcDbEntity
  8
标注
100
AcDbMText
 10
217.6697117618661
 20
224.5305142543007
 30
0.0
 40
0.65
 41
0.0
 71
     5
 72
     1
  1
\A1;R2"
 11
0.793056215852955
 21
0.609148453578429
 31
0.0
 73
     1
 44
1.0
1001
ACAD
1000
MTEXTBEGIN
1070
    73
1070
     1
1070
    44
1040
1.0
1070
    74
1070
     0
1000
MTEXTEND
  0
SOLID
  5
682
330
67F
100
AcDbEntity
  8
标注
100
AcDbTrace
 10
216.3282219322315
 20
223.6367149148461
 30
0.0
 11
216.4602040971735
 21
223.4648860680779
 31
0.0
 12
215.8787264743981
 22
223.1548539966361
 32
0.0
 13
215.8787264743981
 23
223.1548539966361
 33
0.0
  0
POINT
  5
683
330
67F
100
AcDbEntity
  8
Defpoints
 62
     0
100
AcDbPoint
 10
215.8787264743981
 20
223.1548539966361
 30
0.0
  0
POINT
  5
684
330
67F
100
AcDbEntity
  8
Defpoints
 62
     0
100
AcDbPoint
 10
217.4648389061041
 20
224.3731509037929
 30
0.0
  0
ENDBLK
  5
686
330
67F
100
AcDbEntity
  8
0
100
AcDbBlockEnd
  0
BLOCK
  5
887
330
87C
100
AcDbEntity
  8
0
100
AcDbBlockBegin
  2
*D18
 70
     1
 10
0.0
 20
0.0
 30
0.0
  3
*D18
  1

  0
LINE
  5
C48
330
87C
100
AcDbEntity
  8
标注
370
    -2
100
AcDbLine
 10
198.3544287709788
 20
228.9003785154762
 30
0.0
 11
196.2462173539444
 21
228.9003785154762
 31
0.0
  0
LINE
  5
C49
330
87C
100
AcDbEntity
  8
标注
370
    -2
100
AcDbLine
 10
205.9882870386953
 20
219.9003785154762
 30
0.0
 11
196.2462173539444
 21
219.9003785154762
 31
0.0
  0
LINE
  5
C4A
330
87C
100
AcDbEntity
  8
标注
370
    -2
100
AcDbLine
 10
196.5662173539444
 20
228.2503785154762
 30
0.0
 11
196.5662173539444
 21
225.0337118488095
 31
0.0
  0
LINE
  5
C4B
330
87C
100
AcDbEntity
  8
标注
370
    -2
100
AcDbLine
 10
196.5662173539444
 20
220.5503785154762
 30
0.0
 11
196.5662173539444
 21
223.7670451821428
 31
0.0
  0
SOLID
  5
C4C
330
87C
100
AcDbEntity
  8
标注
100
AcDbTrace
 10
196.4578840206111
 20
228.2503785154762
 30
0.0
 11
196.6745506872777
 21
228.2503785154762
 31
0.0
 12
196.5662173539444
 22
228.9003785154762
 32
0.0
 13
196.5662173539444
 23
228.9003785154762
 33
0.0
  0
SOLID
  5
C4D
330
87C
100
AcDbEntity
  8
标注
100
AcDbTrace
 10
196.4578840206111
 20
220.5503785154762
 30
0.0
 11
196.6745506872777
 21
220.5503785154762
 31
0.0
 12
196.5662173539444
 22
219.9003785154762
 32
0.0
 13
196.5662173539444
 23
219.9003785154762
 33
0.0
  0
MTEXT
  5
C4E
330
87C
100
AcDbEntity
  8
标注
100
AcDbMText
 10
196.5662173539443
 20
224.4003785154762
 30
0.0
 40
0.65
 41
0.0
 71
     5
 72
     1
  1
\A1;9"
 11
0.0000000000000001
 21
1.0
 31
0.0
 73
     1
 44
1.0
1001
ACAD
1000
MTEXTBEGIN
1070
    73
1070
     1
1070
    44
1040
1.0
1070
    74
1070
     0
1000
MTEXTEND
  0
POINT
  5
C4F
330
87C
100
AcDbEntity
  8
Defpoints
 62
     0
100
AcDbPoint
 10
199.2344287709789
 20
228.9003785154762
 30
0.0
  0
POINT
  5
C50
330
87C
100
AcDbEntity
  8
Defpoints
 62
     0
100
AcDbPoint
 10
206.8682870386953
 20
219.9003785154762
 30
0.0
  0
POINT
  5
C51
330
87C
100
AcDbEntity
  8
Defpoints
 62
     0
100
AcDbPoint
 10
196.5662173539444
 20
219.9003785154762
 30
0.0
  0
ENDBLK
  5
888
330
87C
100
AcDbEntity
  8
0
100
AcDbBlockEnd
  0
BLOCK
  5
894
330
889
100
AcDbEntity
  8
0
100
AcDbBlockBegin
  2
*D19
 70
     1
 10
0.0
 20
0.0
 30
0.0
  3
*D19
  1

  0
LINE
  5
A75
330
889
100
AcDbEntity
  8
标注
370
    -2
100
AcDbLine
 10
306.9058723247739
 20
230.6178766621064
 30
0.0
 11
308.8425618239226
 21
230.6178766621064
 31
0.0
  0
LINE
  5
A76
330
889
100
AcDbEntity
  8
标注
370
    -2
100
AcDbLine
 10
301.3707126712346
 20
223.6178766621064
 30
0.0
 11
308.8425618239226
 21
223.6178766621064
 31
0.0
  0
LINE
  5
A77
330
889
100
AcDbEntity
  8
标注
370
    -2
100
AcDbLine
 10
308.5225618239225
 20
229.9678766621064
 30
0.0
 11
308.5225618239225
 21
227.7512099954397
 31
0.0
  0
LINE
  5
A78
330
889
100
AcDbEntity
  8
标注
370
    -2
100
AcDbLine
 10
308.5225618239225
 20
224.2678766621064
 30
0.0
 11
308.5225618239225
 21
226.484543328773
 31
0.0
  0
SOLID
  5
A79
330
889
100
AcDbEntity
  8
标注
100
AcDbTrace
 10
308.4142284905892
 20
229.9678766621064
 30
0.0
 11
308.6308951572558
 21
229.9678766621064
 31
0.0
 12
308.5225618239225
 22
230.6178766621064
 32
0.0
 13
308.5225618239225
 23
230.6178766621064
 33
0.0
  0
SOLID
  5
A7A
330
889
100
AcDbEntity
  8
标注
100
AcDbTrace
 10
308.4142284905892
 20
224.2678766621064
 30
0.0
 11
308.6308951572558
 21
224.2678766621064
 31
0.0
 12
308.5225618239225
 22
223.6178766621064
 32
0.0
 13
308.5225618239225
 23
223.6178766621064
 33
0.0
  0
MTEXT
  5
A7B
330
889
100
AcDbEntity
  8
标注
100
AcDbMText
 10
308.5225618239225
 20
227.1178766621064
 30
0.0
 40
0.65
 41
0.0
 71
     5
 72
     1
  1
\A1;7"
 11
0.0000000000000001
 21
1.0
 31
0.0
 73
     1
 44
1.0
1001
ACAD
1000
MTEXTBEGIN
1070
    73
1070
     1
1070
    44
1040
1.0
1070
    74
1070
     0
1000
MTEXTEND
  0
POINT
  5
A7C
330
889
100
AcDbEntity
  8
Defpoints
 62
     0
100
AcDbPoint
 10
306.0258723247738
 20
230.6178766621064
 30
0.0
  0
POINT
  5
A7D
330
889
100
AcDbEntity
  8
Defpoints
 62
     0
100
AcDbPoint
 10
300.4907126712347
 20
223.6178766621064
 30
0.0
  0
POINT
  5
A7E
330
889
100
AcDbEntity
  8
Defpoints
 62
     0
100
AcDbPoint
 10
308.5225618239225
 20
223.6178766621064
 30
0.0
  0
ENDBLK
  5
895
330
889
100
AcDbEntity
  8
0
100
AcDbBlockEnd
  0
BLOCK
  5
8A1
330
896
100
AcDbEntity
  8
0
100
AcDbBlockBegin
  2
*D20
 70
     1
 10
0.0
 20
0.0
 30
0.0
  3
*D20
  1

  0
LINE
  5
C3E
330
896
100
AcDbEntity
  8
标注
370
    -2
100
AcDbLine
 10
208.2126964875147
 20
208.4053273304736
 30
0.0
 11
196.2462173539447
 21
208.4053273304736
 31
0.0
  0
LINE
  5
C3F
330
896
100
AcDbEntity
  8
标注
370
    -2
100
AcDbLine
 10
203.291436644995
 20
189.9013903225996
 30
0.0
 11
196.2462173539447
 21
189.9013903225996
 31
0.0
  0
LINE
  5
C40
330
896
100
AcDbEntity
  8
标注
370
    -2
100
AcDbLine
 10
196.5662173539447
 20
207.7553273304736
 30
0.0
 11
196.5662173539447
 21
201.1950254932032
 31
0.0
  0
LINE
  5
C41
330
896
100
AcDbEntity
  8
标注
370
    -2
100
AcDbLine
 10
196.5662173539447
 20
190.5513903225996
 30
0.0
 11
196.5662173539447
 21
197.1116921598699
 31
0.0
  0
SOLID
  5
C42
330
896
100
AcDbEntity
  8
标注
100
AcDbTrace
 10
196.4578840206114
 20
207.7553273304736
 30
0.0
 11
196.674550687278
 21
207.7553273304736
 31
0.0
 12
196.5662173539447
 22
208.4053273304736
 32
0.0
 13
196.5662173539447
 23
208.4053273304736
 33
0.0
  0
SOLID
  5
C43
330
896
100
AcDbEntity
  8
标注
100
AcDbTrace
 10
196.4578840206113
 20
190.5513903225996
 30
0.0
 11
196.674550687278
 21
190.5513903225996
 31
0.0
 12
196.5662173539447
 22
189.9013903225996
 32
0.0
 13
196.5662173539447
 23
189.9013903225996
 33
0.0
  0
MTEXT
  5
C44
330
896
100
AcDbEntity
  8
标注
100
AcDbMText
 10
196.5662173539446
 20
199.1533588265366
 30
0.0
 40
0.65
 41
0.0
 71
     5
 72
     1
  1
\A1;18 1/2"
 11
0.0000000000000001
 21
1.0
 31
0.0
 73
     1
 44
1.0
1001
ACAD
1000
MTEXTBEGIN
1070
    73
1070
     1
1070
    44
1040
1.0
1070
    74
1070
     0
1000
MTEXTEND
  0
POINT
  5
C45
330
896
100
AcDbEntity
  8
Defpoints
 62
     0
100
AcDbPoint
 10
209.0926964875147
 20
208.4053273304736
 30
0.0
  0
POINT
  5
C46
330
896
100
AcDbEntity
  8
Defpoints
 62
     0
100
AcDbPoint
 10
204.171436644995
 20
189.9013903225996
 30
0.0
  0
POINT
  5
C47
330
896
100
AcDbEntity
  8
Defpoints
 62
     0
100
AcDbPoint
 10
196.5662173539447
 20
189.9013903225996
 30
0.0
  0
ENDBLK
  5
8A2
330
896
100
AcDbEntity
  8
0
100
AcDbBlockEnd
  0
BLOCK
  5
8AE
330
8A3
100
AcDbEntity
  8
0
100
AcDbBlockBegin
  2
*D21
 70
     1
 10
0.0
 20
0.0
 30
0.0
  3
*D21
  1

  0
LINE
  5
C34
330
8A3
100
AcDbEntity
  8
标注
370
    -2
100
AcDbLine
 10
205.6536413694045
 20
209.4053100857582
 30
0.0
 11
193.8752387198185
 21
209.4053100857582
 31
0.0
  0
LINE
  5
C35
330
8A3
100
AcDbEntity
  8
标注
370
    -2
100
AcDbLine
 10
203.291436644995
 20
188.9013903225995
 30
0.0
 11
193.8752387198184
 21
188.9013903225995
 31
0.0
  0
LINE
  5
C36
330
8A3
100
AcDbEntity
  8
标注
370
    -2
100
AcDbLine
 10
194.1952387198185
 20
208.7553100857582
 30
0.0
 11
194.1952387198185
 21
201.2491835375122
 31
0.0
  0
LINE
  5
C37
330
8A3
100
AcDbEntity
  8
标注
370
    -2
100
AcDbLine
 10
194.1952387198185
 20
189.5513903225996
 30
0.0
 11
194.1952387198185
 21
197.0575168708455
 31
0.0
  0
SOLID
  5
C38
330
8A3
100
AcDbEntity
  8
标注
100
AcDbTrace
 10
194.0869053864851
 20
208.7553100857582
 30
0.0
 11
194.3035720531518
 21
208.7553100857582
 31
0.0
 12
194.1952387198185
 22
209.4053100857582
 32
0.0
 13
194.1952387198185
 23
209.4053100857582
 33
0.0
  0
SOLID
  5
C39
330
8A3
100
AcDbEntity
  8
标注
100
AcDbTrace
 10
194.0869053864851
 20
189.5513903225996
 30
0.0
 11
194.3035720531518
 21
189.5513903225996
 31
0.0
 12
194.1952387198185
 22
188.9013903225995
 32
0.0
 13
194.1952387198185
 23
188.9013903225995
 33
0.0
  0
MTEXT
  5
C3A
330
8A3
100
AcDbEntity
  8
标注
100
AcDbMText
 10
194.1952387198184
 20
199.1533502041789
 30
0.0
 40
0.65
 41
0.0
 71
     5
 72
     1
  1
\A1;20 1/2"
 11
0.0000000000000001
 21
1.0
 31
0.0
 73
     1
 44
1.0
1001
ACAD
1000
MTEXTBEGIN
1070
    73
1070
     1
1070
    44
1040
1.0
1070
    74
1070
     0
1000
MTEXTEND
  0
POINT
  5
C3B
330
8A3
100
AcDbEntity
  8
Defpoints
 62
     0
100
AcDbPoint
 10
206.5336413694045
 20
209.4053100857582
 30
0.0
  0
POINT
  5
C3C
330
8A3
100
AcDbEntity
  8
Defpoints
 62
     0
100
AcDbPoint
 10
204.171436644995
 20
188.9013903225995
 30
0.0
  0
POINT
  5
C3D
330
8A3
100
AcDbEntity
  8
Defpoints
 62
     0
100
AcDbPoint
 10
194.1952387198185
 20
188.9013903225995
 30
0.0
  0
ENDBLK
  5
8AF
330
8A3
100
AcDbEntity
  8
0
100
AcDbBlockEnd
  0
BLOCK
  5
8BB
330
8B0
100
AcDbEntity
  8
0
100
AcDbBlockBegin
  2
*D22
 70
     1
 10
0.0
 20
0.0
 30
0.0
  3
*D22
  1

  0
LINE
  5
C2A
330
8B0
100
AcDbEntity
  8
标注
370
    -2
100
AcDbLine
 10
226.5081295583807
 20
206.4369952141638
 30
0.0
 11
235.9627587817186
 21
206.4369952141638
 31
0.0
  0
LINE
  5
C2B
330
8B0
100
AcDbEntity
  8
标注
370
    -2
100
AcDbLine
 10
226.5081295583807
 20
189.9015621432976
 30
0.0
 11
235.9627587817186
 21
189.9015621432976
 31
0.0
  0
LINE
  5
C2C
330
8B0
100
AcDbEntity
  8
标注
370
    -2
100
AcDbLine
 10
235.6427587817186
 20
205.7869952141639
 30
0.0
 11
235.6427587817186
 21
200.2109453453974
 31
0.0
  0
LINE
  5
C2D
330
8B0
100
AcDbEntity
  8
标注
370
    -2
100
AcDbLine
 10
235.6427587817186
 20
190.5515621432977
 30
0.0
 11
235.6427587817186
 21
196.1276120120641
 31
0.0
  0
SOLID
  5
C2E
330
8B0
100
AcDbEntity
  8
标注
100
AcDbTrace
 10
235.5344254483853
 20
205.7869952141639
 30
0.0
 11
235.7510921150519
 21
205.7869952141639
 31
0.0
 12
235.6427587817186
 22
206.4369952141638
 32
0.0
 13
235.6427587817186
 23
206.4369952141638
 33
0.0
  0
SOLID
  5
C2F
330
8B0
100
AcDbEntity
  8
标注
100
AcDbTrace
 10
235.5344254483852
 20
190.5515621432977
 30
0.0
 11
235.7510921150519
 21
190.5515621432977
 31
0.0
 12
235.6427587817186
 22
189.9015621432976
 32
0.0
 13
235.6427587817186
 23
189.9015621432976
 33
0.0
  0
MTEXT
  5
C30
330
8B0
100
AcDbEntity
  8
标注
100
AcDbMText
 10
235.6427587817185
 20
198.1692786787308
 30
0.0
 40
0.65
 41
0.0
 71
     5
 72
     1
  1
\A1;16 1/2"
 11
0.0000000000000001
 21
1.0
 31
0.0
 73
     1
 44
1.0
1001
ACAD
1000
MTEXTBEGIN
1070
    73
1070
     1
1070
    44
1040
1.0
1070
    74
1070
     0
1000
MTEXTEND
  0
POINT
  5
C31
330
8B0
100
AcDbEntity
  8
Defpoints
 62
     0
100
AcDbPoint
 10
225.6281295583808
 20
206.4369952141638
 30
0.0
  0
POINT
  5
C32
330
8B0
100
AcDbEntity
  8
Defpoints
 62
     0
100
AcDbPoint
 10
225.6281295583808
 20
189.9015621432976
 30
0.0
  0
POINT
  5
C33
330
8B0
100
AcDbEntity
  8
Defpoints
 62
     0
100
AcDbPoint
 10
235.6427587817186
 20
189.9015621432976
 30
0.0
  0
ENDBLK
  5
8BC
330
8B0
100
AcDbEntity
  8
0
100
AcDbBlockEnd
  0
BLOCK
  5
8C8
330
8BD
100
AcDbEntity
  8
0
100
AcDbBlockBegin
  2
*D23
 70
     1
 10
0.0
 20
0.0
 30
0.0
  3
*D23
  1

  0
LINE
  5
C20
330
8BD
100
AcDbEntity
  8
标注
370
    -2
100
AcDbLine
 10
229.4608854638926
 20
207.4369952141638
 30
0.0
 11
238.1228989213742
 21
207.4369952141638
 31
0.0
  0
LINE
  5
C21
330
8BD
100
AcDbEntity
  8
标注
370
    -2
100
AcDbLine
 10
229.4608854638926
 20
188.9013903225995
 30
0.0
 11
238.1228989213742
 21
188.9013903225995
 31
0.0
  0
LINE
  5
C22
330
8BD
100
AcDbEntity
  8
标注
370
    -2
100
AcDbLine
 10
237.8028989213742
 20
206.7869952141638
 30
0.0
 11
237.8028989213742
 21
200.2108594350484
 31
0.0
  0
LINE
  5
C23
330
8BD
100
AcDbEntity
  8
标注
370
    -2
100
AcDbLine
 10
237.8028989213742
 20
189.5513903225996
 30
0.0
 11
237.8028989213742
 21
196.127526101715
 31
0.0
  0
SOLID
  5
C24
330
8BD
100
AcDbEntity
  8
标注
100
AcDbTrace
 10
237.6945655880409
 20
206.7869952141638
 30
0.0
 11
237.9112322547076
 21
206.7869952141638
 31
0.0
 12
237.8028989213742
 22
207.4369952141638
 32
0.0
 13
237.8028989213742
 23
207.4369952141638
 33
0.0
  0
SOLID
  5
C25
330
8BD
100
AcDbEntity
  8
标注
100
AcDbTrace
 10
237.6945655880409
 20
189.5513903225996
 30
0.0
 11
237.9112322547075
 21
189.5513903225996
 31
0.0
 12
237.8028989213742
 22
188.9013903225995
 32
0.0
 13
237.8028989213742
 23
188.9013903225995
 33
0.0
  0
MTEXT
  5
C26
330
8BD
100
AcDbEntity
  8
标注
100
AcDbMText
 10
237.8028989213742
 20
198.1691927683817
 30
0.0
 40
0.65
 41
0.0
 71
     5
 72
     1
  1
\A1;18 1/2"
 11
0.0000000000000001
 21
1.0
 31
0.0
 73
     1
 44
1.0
1001
ACAD
1000
MTEXTBEGIN
1070
    73
1070
     1
1070
    44
1040
1.0
1070
    74
1070
     0
1000
MTEXTEND
  0
POINT
  5
C27
330
8BD
100
AcDbEntity
  8
Defpoints
 62
     0
100
AcDbPoint
 10
228.5808854638926
 20
207.4369952141638
 30
0.0
  0
POINT
  5
C28
330
8BD
100
AcDbEntity
  8
Defpoints
 62
     0
100
AcDbPoint
 10
228.5808854638926
 20
188.9013903225995
 30
0.0
  0
POINT
  5
C29
330
8BD
100
AcDbEntity
  8
Defpoints
 62
     0
100
AcDbPoint
 10
237.8028989213742
 20
188.9013903225995
 30
0.0
  0
ENDBLK
  5
8C9
330
8BD
100
AcDbEntity
  8
0
100
AcDbBlockEnd
  0
BLOCK
  5
8D5
330
8CA
100
AcDbEntity
  8
0
100
AcDbBlockBegin
  2
*D24
 70
     1
 10
0.0
 20
0.0
 30
0.0
  3
*D24
  1

  0
LINE
  5
C16
330
8CA
100
AcDbEntity
  8
标注
370
    -2
100
AcDbLine
 10
219.1320665662548
 20
197.2892786787308
 30
0.0
 11
219.1320665662548
 21
185.9859484721582
 31
0.0
  0
LINE
  5
C17
330
8CA
100
AcDbEntity
  8
标注
370
    -2
100
AcDbLine
 10
232.1241925505068
 20
197.2892786787309
 30
0.0
 11
232.1241925505068
 21
185.9859484721582
 31
0.0
  0
LINE
  5
C18
330
8CA
100
AcDbEntity
  8
标注
370
    -2
100
AcDbLine
 10
219.7820665662548
 20
186.3059484721581
 30
0.0
 11
224.7781295583808
 21
186.3059484721581
 31
0.0
  0
LINE
  5
C19
330
8CA
100
AcDbEntity
  8
标注
370
    -2
100
AcDbLine
 10
231.4741925505068
 20
186.3059484721581
 30
0.0
 11
226.4781295583808
 21
186.3059484721581
 31
0.0
  0
SOLID
  5
C1A
330
8CA
100
AcDbEntity
  8
标注
100
AcDbTrace
 10
219.7820665662548
 20
186.4142818054915
 30
0.0
 11
219.7820665662548
 21
186.1976151388248
 31
0.0
 12
219.1320665662548
 22
186.3059484721581
 32
0.0
 13
219.1320665662548
 23
186.3059484721581
 33
0.0
  0
SOLID
  5
C1B
330
8CA
100
AcDbEntity
  8
标注
100
AcDbTrace
 10
231.4741925505068
 20
186.4142818054915
 30
0.0
 11
231.4741925505068
 21
186.1976151388248
 31
0.0
 12
232.1241925505068
 22
186.3059484721581
 32
0.0
 13
232.1241925505068
 23
186.3059484721581
 33
0.0
  0
MTEXT
  5
C1C
330
8CA
100
AcDbEntity
  8
标注
100
AcDbMText
 10
225.6281295583808
 20
186.3059484721581
 30
0.0
 40
0.65
 41
0.0
 71
     5
 72
     1
  1
\A1;13"
 73
     1
 44
1.0
1001
ACAD
1000
MTEXTBEGIN
1070
    73
1070
     1
1070
    44
1040
1.0
1070
    74
1070
     0
1000
MTEXTEND
  0
POINT
  5
C1D
330
8CA
100
AcDbEntity
  8
Defpoints
 62
     0
100
AcDbPoint
 10
219.1320665662548
 20
198.1692786787308
 30
0.0
  0
POINT
  5
C1E
330
8CA
100
AcDbEntity
  8
Defpoints
 62
     0
100
AcDbPoint
 10
232.1241925505068
 20
198.1692786787309
 30
0.0
  0
POINT
  5
C1F
330
8CA
100
AcDbEntity
  8
Defpoints
 62
     0
100
AcDbPoint
 10
232.1241925505068
 20
186.3059484721581
 30
0.0
  0
ENDBLK
  5
8D6
330
8CA
100
AcDbEntity
  8
0
100
AcDbBlockEnd
  0
BLOCK
  5
8E2
330
8D7
100
AcDbEntity
  8
0
100
AcDbBlockBegin
  2
*D25
 70
     1
 10
0.0
 20
0.0
 30
0.0
  3
*D25
  1

  0
LINE
  5
C0C
330
8D7
100
AcDbEntity
  8
标注
370
    -2
100
AcDbLine
 10
200.2344287709792
 20
192.9583981966153
 30
0.0
 11
200.2344287709792
 21
185.9763542414809
 31
0.0
  0
LINE
  5
C0D
330
8D7
100
AcDbEntity
  8
标注
370
    -2
100
AcDbLine
 10
217.9509642040501
 20
192.9583981966153
 30
0.0
 11
217.9509642040501
 21
185.9763542414809
 31
0.0
  0
LINE
  5
C0E
330
8D7
100
AcDbEntity
  8
标注
370
    -2
100
AcDbLine
 10
200.8844287709792
 20
186.2963542414809
 30
0.0
 11
206.9426964875146
 21
186.2963542414809
 31
0.0
  0
LINE
  5
C0F
330
8D7
100
AcDbEntity
  8
标注
370
    -2
100
AcDbLine
 10
217.3009642040501
 20
186.2963542414809
 30
0.0
 11
211.2426964875146
 21
186.2963542414809
 31
0.0
  0
SOLID
  5
C10
330
8D7
100
AcDbEntity
  8
标注
100
AcDbTrace
 10
200.8844287709792
 20
186.4046875748142
 30
0.0
 11
200.8844287709792
 21
186.1880209081476
 31
0.0
 12
200.2344287709792
 22
186.2963542414809
 32
0.0
 13
200.2344287709792
 23
186.2963542414809
 33
0.0
  0
SOLID
  5
C11
330
8D7
100
AcDbEntity
  8
标注
100
AcDbTrace
 10
217.3009642040501
 20
186.4046875748142
 30
0.0
 11
217.3009642040501
 21
186.1880209081476
 31
0.0
 12
217.9509642040501
 22
186.2963542414809
 32
0.0
 13
217.9509642040501
 23
186.2963542414809
 33
0.0
  0
MTEXT
  5
C12
330
8D7
100
AcDbEntity
  8
标注
100
AcDbMText
 10
209.0926964875146
 20
186.2963542414809
 30
0.0
 40
0.65
 41
0.0
 71
     5
 72
     1
  1
\A1;17 3/4"
 73
     1
 44
1.0
1001
ACAD
1000
MTEXTBEGIN
1070
    73
1070
     1
1070
    44
1040
1.0
1070
    74
1070
     0
1000
MTEXTEND
  0
POINT
  5
C13
330
8D7
100
AcDbEntity
  8
Defpoints
 62
     0
100
AcDbPoint
 10
200.2344287709792
 20
193.8383981966153
 30
0.0
  0
POINT
  5
C14
330
8D7
100
AcDbEntity
  8
Defpoints
 62
     0
100
AcDbPoint
 10
217.9509642040501
 20
193.8383981966153
 30
0.0
  0
POINT
  5
C15
330
8D7
100
AcDbEntity
  8
Defpoints
 62
     0
100
AcDbPoint
 10
217.9509642040501
 20
186.2963542414809
 30
0.0
  0
ENDBLK
  5
8E3
330
8D7
100
AcDbEntity
  8
0
100
AcDbBlockEnd
  0
BLOCK
  5
8EF
330
8E4
100
AcDbEntity
  8
0
100
AcDbBlockBegin
  2
*D26
 70
     1
 10
0.0
 20
0.0
 30
0.0
  3
*D26
  1

  0
LINE
  5
C02
330
8E4
100
AcDbEntity
  8
标注
370
    -2
100
AcDbLine
 10
199.2344287709792
 20
192.9583981966153
 30
0.0
 11
199.2344287709792
 21
183.7624627921467
 31
0.0
  0
LINE
  5
C03
330
8E4
100
AcDbEntity
  8
标注
370
    -2
100
AcDbLine
 10
233.1241925505068
 20
192.9583981966153
 30
0.0
 11
233.1241925505068
 21
183.7624627921467
 31
0.0
  0
LINE
  5
C04
330
8E4
100
AcDbEntity
  8
标注
370
    -2
100
AcDbLine
 10
199.8844287709792
 20
184.0824627921467
 30
0.0
 11
213.9209773274097
 21
184.0824627921467
 31
0.0
  0
LINE
  5
C05
330
8E4
100
AcDbEntity
  8
标注
370
    -2
100
AcDbLine
 10
232.4741925505067
 20
184.0824627921467
 30
0.0
 11
218.4376439940763
 21
184.0824627921467
 31
0.0
  0
SOLID
  5
C06
330
8E4
100
AcDbEntity
  8
标注
100
AcDbTrace
 10
199.8844287709792
 20
184.1907961254801
 30
0.0
 11
199.8844287709792
 21
183.9741294588134
 31
0.0
 12
199.2344287709792
 22
184.0824627921467
 32
0.0
 13
199.2344287709792
 23
184.0824627921467
 33
0.0
  0
SOLID
  5
C07
330
8E4
100
AcDbEntity
  8
标注
100
AcDbTrace
 10
232.4741925505067
 20
184.1907961254801
 30
0.0
 11
232.4741925505067
 21
183.9741294588134
 31
0.0
 12
233.1241925505068
 22
184.0824627921467
 32
0.0
 13
233.1241925505068
 23
184.0824627921467
 33
0.0
  0
MTEXT
  5
C08
330
8E4
100
AcDbEntity
  8
标注
100
AcDbMText
 10
216.179310660743
 20
184.0824627921467
 30
0.0
 40
0.65
 41
0.0
 71
     5
 72
     1
  1
\A1;33 7/8"
 73
     1
 44
1.0
1001
ACAD
1000
MTEXTBEGIN
1070
    73
1070
     1
1070
    44
1040
1.0
1070
    74
1070
     0
1000
MTEXTEND
  0
POINT
  5
C09
330
8E4
100
AcDbEntity
  8
Defpoints
 62
     0
100
AcDbPoint
 10
199.2344287709792
 20
193.8383981966153
 30
0.0
  0
POINT
  5
C0A
330
8E4
100
AcDbEntity
  8
Defpoints
 62
     0
100
AcDbPoint
 10
233.1241925505068
 20
193.8383981966153
 30
0.0
  0
POINT
  5
C0B
330
8E4
100
AcDbEntity
  8
Defpoints
 62
     0
100
AcDbPoint
 10
233.1241925505068
 20
184.0824627921467
 30
0.0
  0
ENDBLK
  5
8F0
330
8E4
100
AcDbEntity
  8
0
100
AcDbBlockEnd
  0
BLOCK
  5
AE2
330
AD6
100
AcDbEntity
  8
0
100
AcDbBlockBegin
  2
*D27
 70
     1
 10
0.0
 20
0.0
 30
0.0
  3
*D27
  1

  0
LINE
  5
BF7
330
AD6
100
AcDbEntity
  8
标注
370
    -2
100
AcDbLine
 10
232.1241925505068
 20
197.2892786787307
 30
0.0
 11
232.1241925505068
 21
185.9859484721582
 31
0.0
  0
LINE
  5
BF8
330
AD6
100
AcDbEntity
  8
标注
370
    -2
100
AcDbLine
 10
233.1241925505068
 20
192.5646974092138
 30
0.0
 11
233.1241925505068
 21
185.9859484721582
 31
0.0
  0
LINE
  5
BF9
330
AD6
100
AcDbEntity
  8
标注
370
    -2
100
AcDbLine
 10
231.4741925505068
 20
186.3059484721581
 30
0.0
 11
230.8241925505068
 21
186.3059484721581
 31
0.0
  0
LINE
  5
BFA
330
AD6
100
AcDbEntity
  8
标注
370
    -2
100
AcDbLine
 10
233.7741925505067
 20
186.3059484721581
 30
0.0
 11
234.4241925505067
 21
186.3059484721581
 31
0.0
  0
LINE
  5
BFB
330
AD6
100
AcDbEntity
  8
标注
370
    -2
100
AcDbLine
 10
232.1241925505068
 20
186.3059484721581
 30
0.0
 11
233.1241925505068
 21
186.3059484721581
 31
0.0
  0
SOLID
  5
BFC
330
AD6
100
AcDbEntity
  8
标注
100
AcDbTrace
 10
231.4741925505068
 20
186.4142818054915
 30
0.0
 11
231.4741925505068
 21
186.1976151388248
 31
0.0
 12
232.1241925505068
 22
186.3059484721581
 32
0.0
 13
232.1241925505068
 23
186.3059484721581
 33
0.0
  0
SOLID
  5
BFD
330
AD6
100
AcDbEntity
  8
标注
100
AcDbTrace
 10
233.7741925505067
 20
186.4142818054915
 30
0.0
 11
233.7741925505067
 21
186.1976151388248
 31
0.0
 12
233.1241925505068
 22
186.3059484721581
 32
0.0
 13
233.1241925505068
 23
186.3059484721581
 33
0.0
  0
MTEXT
  5
BFE
330
AD6
100
AcDbEntity
  8
标注
100
AcDbMText
 10
234.9491925505067
 20
186.3059484721581
 30
0.0
 40
0.65
 41
0.0
 71
     5
 72
     1
  1
\A1;1"
 73
     1
 44
1.0
1001
ACAD
1000
MTEXTBEGIN
1070
    73
1070
     1
1070
    44
1040
1.0
1070
    74
1070
     0
1000
MTEXTEND
  0
POINT
  5
BFF
330
AD6
100
AcDbEntity
  8
Defpoints
 62
     0
100
AcDbPoint
 10
232.1241925505068
 20
198.1692786787307
 30
0.0
  0
POINT
  5
C00
330
AD6
100
AcDbEntity
  8
Defpoints
 62
     0
100
AcDbPoint
 10
233.1241925505068
 20
193.4446974092138
 30
0.0
  0
POINT
  5
C01
330
AD6
100
AcDbEntity
  8
Defpoints
 62
     0
100
AcDbPoint
 10
233.1241925505068
 20
186.3059484721581
 30
0.0
  0
ENDBLK
  5
AE3
330
AD6
100
AcDbEntity
  8
0
100
AcDbBlockEnd
  0
BLOCK
  5
AFE
330
AF2
100
AcDbEntity
  8
0
100
AcDbBlockBegin
  2
*D28
 70
     1
 10
0.0
 20
0.0
 30
0.0
  3
*D28
  1

  0
LINE
  5
BEC
330
AF2
100
AcDbEntity
  8
标注
370
    -2
100
AcDbLine
 10
219.1320665662548
 20
197.2892786787307
 30
0.0
 11
219.1320665662548
 21
197.5166047187522
 31
0.0
  0
LINE
  5
BED
330
AF2
100
AcDbEntity
  8
标注
370
    -2
100
AcDbLine
 10
217.9509642040501
 20
197.2892786787307
 30
0.0
 11
217.9509642040501
 21
197.5166047187522
 31
0.0
  0
LINE
  5
BEE
330
AF2
100
AcDbEntity
  8
标注
370
    -2
100
AcDbLine
 10
219.7820665662548
 20
197.8366047187521
 30
0.0
 11
220.4320665662548
 21
197.8366047187521
 31
0.0
  0
LINE
  5
BEF
330
AF2
100
AcDbEntity
  8
标注
370
    -2
100
AcDbLine
 10
217.3009642040501
 20
197.8366047187521
 30
0.0
 11
216.6509642040501
 21
197.8366047187521
 31
0.0
  0
LINE
  5
BF0
330
AF2
100
AcDbEntity
  8
标注
370
    -2
100
AcDbLine
 10
219.1320665662548
 20
197.8366047187521
 30
0.0
 11
217.9509642040501
 21
197.8366047187521
 31
0.0
  0
SOLID
  5
BF1
330
AF2
100
AcDbEntity
  8
标注
100
AcDbTrace
 10
219.7820665662548
 20
197.9449380520854
 30
0.0
 11
219.7820665662548
 21
197.7282713854189
 31
0.0
 12
219.1320665662548
 22
197.8366047187521
 32
0.0
 13
219.1320665662548
 23
197.8366047187521
 33
0.0
  0
SOLID
  5
BF2
330
AF2
100
AcDbEntity
  8
标注
100
AcDbTrace
 10
217.3009642040501
 20
197.9449380520854
 30
0.0
 11
217.3009642040501
 21
197.7282713854189
 31
0.0
 12
217.9509642040501
 22
197.8366047187521
 32
0.0
 13
217.9509642040501
 23
197.8366047187521
 33
0.0
  0
MTEXT
  5
BF3
330
AF2
100
AcDbEntity
  8
标注
100
AcDbMText
 10
214.9342975373834
 20
197.8366047187521
 30
0.0
 40
0.65
 41
0.0
 71
     5
 72
     1
  1
\A1;1 1/8"
 73
     1
 44
1.0
1001
ACAD
1000
MTEXTBEGIN
1070
    73
1070
     1
1070
    44
1040
1.0
1070
    74
1070
     0
1000
MTEXTEND
  0
POINT
  5
BF4
330
AF2
100
AcDbEntity
  8
Defpoints
 62
     0
100
AcDbPoint
 10
219.1320665662548
 20
198.1692786787307
 30
0.0
  0
POINT
  5
BF5
330
AF2
100
AcDbEntity
  8
Defpoints
 62
     0
100
AcDbPoint
 10
217.9509642040501
 20
198.1692786787307
 30
0.0
  0
POINT
  5
BF6
330
AF2
100
AcDbEntity
  8
Defpoints
 62
     0
100
AcDbPoint
 10
217.9509642040501
 20
197.8366047187521
 30
0.0
  0
ENDBLK
  5
AFF
330
AF2
100
AcDbEntity
  8
0
100
AcDbBlockEnd
  0
BLOCK
  5
B1A
330
B0E
100
AcDbEntity
  8
0
100
AcDbBlockBegin
  2
*D29
 70
     1
 10
0.0
 20
0.0
 30
0.0
  3
*D29
  1

  0
LINE
  5
BE1
330
B0E
100
AcDbEntity
  8
标注
370
    -2
100
AcDbLine
 10
226.5081295583807
 20
206.4369952141638
 30
0.0
 11
235.9627587817186
 21
206.4369952141638
 31
0.0
  0
LINE
  5
BE2
330
B0E
100
AcDbEntity
  8
标注
370
    -2
100
AcDbLine
 10
229.4608854638926
 20
207.4369952141638
 30
0.0
 11
235.9627587817186
 21
207.4369952141638
 31
0.0
  0
LINE
  5
BE3
330
B0E
100
AcDbEntity
  8
标注
370
    -2
100
AcDbLine
 10
235.6427587817186
 20
205.7869952141639
 30
0.0
 11
235.6427587817186
 21
205.1369952141639
 31
0.0
  0
LINE
  5
BE4
330
B0E
100
AcDbEntity
  8
标注
370
    -2
100
AcDbLine
 10
235.6427587817186
 20
208.0869952141638
 30
0.0
 11
235.6427587817186
 21
208.7369952141638
 31
0.0
  0
LINE
  5
BE5
330
B0E
100
AcDbEntity
  8
标注
370
    -2
100
AcDbLine
 10
235.6427587817186
 20
206.4369952141638
 30
0.0
 11
235.6427587817186
 21
207.4369952141638
 31
0.0
  0
SOLID
  5
BE6
330
B0E
100
AcDbEntity
  8
标注
100
AcDbTrace
 10
235.5344254483852
 20
205.7869952141639
 30
0.0
 11
235.7510921150519
 21
205.7869952141639
 31
0.0
 12
235.6427587817186
 22
206.4369952141638
 32
0.0
 13
235.6427587817186
 23
206.4369952141638
 33
0.0
  0
SOLID
  5
BE7
330
B0E
100
AcDbEntity
  8
标注
100
AcDbTrace
 10
235.5344254483852
 20
208.0869952141638
 30
0.0
 11
235.7510921150519
 21
208.0869952141638
 31
0.0
 12
235.6427587817186
 22
207.4369952141638
 32
0.0
 13
235.6427587817186
 23
207.4369952141638
 33
0.0
  0
MTEXT
  5
BE8
330
B0E
100
AcDbEntity
  8
标注
100
AcDbMText
 10
235.6427587817185
 20
209.2619952141638
 30
0.0
 40
0.65
 41
0.0
 71
     5
 72
     1
  1
\A1;1"
 11
0.0000000000000001
 21
1.0
 31
0.0
 73
     1
 44
1.0
1001
ACAD
1000
MTEXTBEGIN
1070
    73
1070
     1
1070
    44
1040
1.0
1070
    74
1070
     0
1000
MTEXTEND
  0
POINT
  5
BE9
330
B0E
100
AcDbEntity
  8
Defpoints
 62
     0
100
AcDbPoint
 10
225.6281295583808
 20
206.4369952141638
 30
0.0
  0
POINT
  5
BEA
330
B0E
100
AcDbEntity
  8
Defpoints
 62
     0
100
AcDbPoint
 10
228.5808854638926
 20
207.4369952141638
 30
0.0
  0
POINT
  5
BEB
330
B0E
100
AcDbEntity
  8
Defpoints
 62
     0
100
AcDbPoint
 10
235.6427587817186
 20
207.4369952141638
 30
0.0
  0
ENDBLK
  5
B1B
330
B0E
100
AcDbEntity
  8
0
100
AcDbBlockEnd
  0
BLOCK
  5
B29
330
B1D
100
AcDbEntity
  8
0
100
AcDbBlockBegin
  2
*D30
 70
     1
 10
0.0
 20
0.0
 30
0.0
  3
*D30
  1

  0
LINE
  5
BD6
330
B1D
100
AcDbEntity
  8
标注
370
    -2
100
AcDbLine
 10
208.2126964875147
 20
208.4053273304736
 30
0.0
 11
196.2462173539447
 21
208.4053273304736
 31
0.0
  0
LINE
  5
BD7
330
B1D
100
AcDbEntity
  8
标注
370
    -2
100
AcDbLine
 10
205.6536413694045
 20
209.4053100857582
 30
0.0
 11
196.2462173539447
 21
209.4053100857582
 31
0.0
  0
LINE
  5
BD8
330
B1D
100
AcDbEntity
  8
标注
370
    -2
100
AcDbLine
 10
196.5662173539447
 20
207.7553273304736
 30
0.0
 11
196.5662173539447
 21
207.1053273304736
 31
0.0
  0
LINE
  5
BD9
330
B1D
100
AcDbEntity
  8
标注
370
    -2
100
AcDbLine
 10
196.5662173539447
 20
210.0553100857581
 30
0.0
 11
196.5662173539447
 21
210.7053100857581
 31
0.0
  0
LINE
  5
BDA
330
B1D
100
AcDbEntity
  8
标注
370
    -2
100
AcDbLine
 10
196.5662173539447
 20
208.4053273304736
 30
0.0
 11
196.5662173539447
 21
209.4053100857582
 31
0.0
  0
SOLID
  5
BDB
330
B1D
100
AcDbEntity
  8
标注
100
AcDbTrace
 10
196.4578840206113
 20
207.7553273304736
 30
0.0
 11
196.674550687278
 21
207.7553273304736
 31
0.0
 12
196.5662173539447
 22
208.4053273304736
 32
0.0
 13
196.5662173539447
 23
208.4053273304736
 33
0.0
  0
SOLID
  5
BDC
330
B1D
100
AcDbEntity
  8
标注
100
AcDbTrace
 10
196.4578840206113
 20
210.0553100857581
 30
0.0
 11
196.674550687278
 21
210.0553100857581
 31
0.0
 12
196.5662173539447
 22
209.4053100857582
 32
0.0
 13
196.5662173539447
 23
209.4053100857582
 33
0.0
  0
MTEXT
  5
BDD
330
B1D
100
AcDbEntity
  8
标注
100
AcDbMText
 10
196.5662173539446
 20
211.2303100857582
 30
0.0
 40
0.65
 41
0.0
 71
     5
 72
     1
  1
\A1;1"
 11
0.0000000000000001
 21
1.0
 31
0.0
 73
     1
 44
1.0
1001
ACAD
1000
MTEXTBEGIN
1070
    73
1070
     1
1070
    44
1040
1.0
1070
    74
1070
     0
1000
MTEXTEND
  0
POINT
  5
BDE
330
B1D
100
AcDbEntity
  8
Defpoints
 62
     0
100
AcDbPoint
 10
209.0926964875147
 20
208.4053273304736
 30
0.0
  0
POINT
  5
BDF
330
B1D
100
AcDbEntity
  8
Defpoints
 62
     0
100
AcDbPoint
 10
206.5336413694045
 20
209.4053100857582
 30
0.0
  0
POINT
  5
BE0
330
B1D
100
AcDbEntity
  8
Defpoints
 62
     0
100
AcDbPoint
 10
196.5662173539447
 20
209.4053100857582
 30
0.0
  0
ENDBLK
  5
B2A
330
B1D
100
AcDbEntity
  8
0
100
AcDbBlockEnd
  0
BLOCK
  5
B3D
330
B37
100
AcDbEntity
  8
0
100
AcDbBlockBegin
  2
*D31
 70
     1
 10
0.0
 20
0.0
 30
0.0
  3
*D31
  1

  0
LINE
  5
C66
330
B37
100
AcDbEntity
  8
标注
370
    -2
100
AcDbLine
 10
212.6999736020652
 20
206.7228944286465
 30
0.0
 11
212.8362639246457
 21
207.358445329811
 31
0.0
  0
MTEXT
  5
C67
330
B37
100
AcDbEntity
  8
标注
100
AcDbMText
 10
212.2037370429259
 20
204.4088373013299
 30
0.0
 40
0.65
 41
0.0
 71
     5
 72
     1
  1
\A1;R18 1/2"
 11
0.2096774193546185
 21
0.9777706171760264
 31
0.0
 73
     1
 44
1.0
1001
ACAD
1000
MTEXTBEGIN
1070
    73
1070
     1
1070
    44
1040
1.0
1070
    74
1070
     0
1000
MTEXTEND
  0
SOLID
  5
C68
330
B37
100
AcDbEntity
  8
标注
100
AcDbTrace
 10
212.7303387744517
 20
207.3811603835743
 30
0.0
 11
212.9421890748398
 21
207.3357302760475
 31
0.0
 12
212.9725542472262
 22
207.9939962309754
 32
0.0
 13
212.9725542472262
 23
207.9939962309754
 33
0.0
  0
POINT
  5
C69
330
B37
100
AcDbEntity
  8
Defpoints
 62
     0
100
AcDbPoint
 10
212.9725542472262
 20
207.9939962309754
 30
0.0
  0
POINT
  5
C6A
330
B37
100
AcDbEntity
  8
Defpoints
 62
     0
100
AcDbPoint
 10
209.0926964875147
 20
189.9013903225996
 30
0.0
  0
ENDBLK
  5
B3E
330
B37
100
AcDbEntity
  8
0
100
AcDbBlockEnd
  0
BLOCK
  5
B4E
330
B47
100
AcDbEntity
  8
0
100
AcDbBlockBegin
  2
*D32
 70
     1
 10
0.0
 20
0.0
 30
0.0
  3
*D32
  1

  0
LINE
  5
B51
330
B47
100
AcDbEntity
  8
标注
370
    -2
100
AcDbLine
 10
291.3000302921772
 20
210.7452229077134
 30
0.0
 11
290.7229587553321
 21
210.4460767204348
 31
0.0
  0
MTEXT
  5
B52
330
B47
100
AcDbEntity
  8
标注
100
AcDbMText
 10
293.2088053755876
 20
211.7347064502502
 30
0.0
 40
0.65
 41
0.0
 71
     5
 72
     1
  1
\A1;R6 1/4"
 11
0.8878023643769703
 21
0.4602249035055156
 31
0.0
 73
     1
 44
1.0
1001
ACAD
1000
MTEXTBEGIN
1070
    73
1070
     1
1070
    44
1040
1.0
1070
    74
1070
     0
1000
MTEXTEND
  0
LINE
  5
B53
330
B47
100
AcDbEntity
  8
标注
370
    -2
100
AcDbLine
 10
284.5534313798918
 20
207.2478760228852
 30
0.0
 11
290.1458872184871
 21
210.1469305331562
 31
0.0
  0
SOLID
  5
B54
330
B47
100
AcDbEntity
  8
标注
100
AcDbTrace
 10
290.6731010574524
 20
210.5422553099089
 30
0.0
 11
290.7728164532119
 21
210.3498981309606
 31
0.0
 12
290.1458872184871
 22
210.1469305331562
 32
0.0
 13
290.1458872184871
 23
210.1469305331562
 33
0.0
  0
POINT
  5
B55
330
B47
100
AcDbEntity
  8
Defpoints
 62
     0
100
AcDbPoint
 10
290.1458872184871
 20
210.1469305331562
 30
0.0
  0
POINT
  5
B56
330
B47
100
AcDbEntity
  8
Defpoints
 62
     0
100
AcDbPoint
 10
284.5534313798918
 20
207.2478760228852
 30
0.0
  0
ENDBLK
  5
B4F
330
B47
100
AcDbEntity
  8
0
100
AcDbBlockEnd
  0
BLOCK
  5
B5F
330
B59
100
AcDbEntity
  8
0
100
AcDbBlockBegin
  2
*D33
 70
     1
 10
0.0
 20
0.0
 30
0.0
  3
*D33
  1

  0
LINE
  5
C61
330
B59
100
AcDbEntity
  8
标注
370
    -2
100
AcDbLine
 10
216.0292912140767
 20
204.2492001036627
 30
0.0
 11
216.598460996212
 21
204.563120092042
 31
0.0
  0
MTEXT
  5
C62
330
B59
100
AcDbEntity
  8
标注
100
AcDbMText
 10
214.1466527039368
 20
203.2108493728699
 30
0.0
 40
0.65
 41
0.0
 71
     5
 72
     1
  1
\A1;R6 1/4"
 11
0.8756458186697425
 21
0.4829538282757433
 31
0.0
 73
     1
 44
1.0
1001
ACAD
1000
MTEXTBEGIN
1070
    73
1070
     1
1070
    44
1040
1.0
1070
    74
1070
     0
1000
MTEXTEND
  0
SOLID
  5
C63
330
B59
100
AcDbEntity
  8
标注
100
AcDbTrace
 10
216.5461409981488
 20
204.6579817223978
 30
0.0
 11
216.6507809942753
 21
204.4682584616861
 31
0.0
 12
217.1676307783473
 22
204.8770400804212
 32
0.0
 13
217.1676307783473
 23
204.8770400804212
 33
0.0
  0
POINT
  5
C64
330
B59
100
AcDbEntity
  8
Defpoints
 62
     0
100
AcDbPoint
 10
217.1676307783473
 20
204.8770400804212
 30
0.0
  0
POINT
  5
C65
330
B59
100
AcDbEntity
  8
Defpoints
 62
     0
100
AcDbPoint
 10
211.6517516056249
 20
201.8348112408892
 30
0.0
  0
ENDBLK
  5
B60
330
B59
100
AcDbEntity
  8
0
100
AcDbBlockEnd
  0
BLOCK
  5
B6F
330
B69
100
AcDbEntity
  8
0
100
AcDbBlockBegin
  2
*D34
 70
     1
 10
0.0
 20
0.0
 30
0.0
  3
*D34
  1

  0
LINE
  5
B72
330
B69
100
AcDbEntity
  8
标注
370
    -2
100
AcDbLine
 10
275.0599675871395
 20
197.5482183375385
 30
0.0
 11
274.5637435319238
 21
197.128383028131
 31
0.0
  0
MTEXT
  5
B73
330
B69
100
AcDbEntity
  8
标注
100
AcDbMText
 10
276.7840280866709
 20
199.0068769125313
 30
0.0
 40
0.65
 41
0.0
 71
     5
 72
     1
  1
\A1;R3 7/8"
 11
0.7634216234087449
 21
0.6459004760115574
 31
0.0
 73
     1
 44
1.0
1001
ACAD
1000
MTEXTBEGIN
1070
    73
1070
     1
1070
    44
1040
1.0
1070
    74
1070
     0
1000
MTEXTEND
  0
SOLID
  5
B74
330
B69
100
AcDbEntity
  8
标注
100
AcDbTrace
 10
274.4937709803559
 20
197.2110870373336
 30
0.0
 11
274.6337160834916
 21
197.0456790189284
 31
0.0
 12
274.0675194767081
 22
196.7085477187234
 32
0.0
 13
274.0675194767081
 23
196.7085477187234
 33
0.0
  0
POINT
  5
B75
330
B69
100
AcDbEntity
  8
Defpoints
 62
     0
100
AcDbPoint
 10
274.0675194767081
 20
196.7085477187234
 30
0.0
  0
POINT
  5
B76
330
B69
100
AcDbEntity
  8
Defpoints
 62
     0
100
AcDbPoint
 10
277.0731164192623
 20
199.2514629786115
 30
0.0
  0
ENDBLK
  5
B70
330
B69
100
AcDbEntity
  8
0
100
AcDbBlockEnd
  0
BLOCK
  5
B7F
330
B79
100
AcDbEntity
  8
0
100
AcDbBlockBegin
  2
*D35
 70
     1
 10
0.0
 20
0.0
 30
0.0
  3
*D35
  1

  0
LINE
  5
C5C
330
B79
100
AcDbEntity
  8
标注
370
    -2
100
AcDbLine
 10
221.2342415717706
 20
192.0728195303568
 30
0.0
 11
220.7524320725761
 21
191.6365173340684
 31
0.0
  0
MTEXT
  5
C5D
330
B79
100
AcDbEntity
  8
标注
100
AcDbMText
 10
222.8279191460292
 20
193.5159729488488
 30
0.0
 40
0.65
 41
0.0
 71
     5
 72
     1
  1
\A1;R3 1/2"
 11
0.741245383376088
 21
0.6712341481358325
 31
0.0
 73
     1
 44
1.0
1001
ACAD
1000
MTEXTBEGIN
1070
    73
1070
     1
1070
    44
1040
1.0
1070
    74
1070
     0
1000
MTEXTEND
  0
SOLID
  5
C5E
330
B79
100
AcDbEntity
  8
标注
100
AcDbTrace
 10
220.6797150398614
 20
191.7168189172676
 30
0.0
 11
220.8251491052908
 21
191.5562157508694
 31
0.0
 12
220.2706225733817
 22
191.2002151377802
 32
0.0
 13
220.2706225733817
 23
191.2002151377802
 33
0.0
  0
POINT
  5
C5F
330
B79
100
AcDbEntity
  8
Defpoints
 62
     0
100
AcDbPoint
 10
220.2706225733817
 20
191.2002151377802
 30
0.0
  0
POINT
  5
C60
330
B79
100
AcDbEntity
  8
Defpoints
 62
     0
100
AcDbPoint
 10
222.8970825932182
 20
193.5786038516473
 30
0.0
  0
ENDBLK
  5
B80
330
B79
100
AcDbEntity
  8
0
100
AcDbBlockEnd
  0
BLOCK
  5
B8F
330
B89
100
AcDbEntity
  8
0
100
AcDbBlockBegin
  2
*D36
 70
     1
 10
0.0
 20
0.0
 30
0.0
  3
*D36
  1

  0
LINE
  5
BC2
330
B89
100
AcDbEntity
  8
标注
370
    -2
100
AcDbLine
 10
215.6618410292741
 20
191.7796882739617
 30
0.0
 11
216.068030584133
 21
191.2722337976552
 31
0.0
  0
MTEXT
  5
BC3
330
B89
100
AcDbEntity
  8
标注
100
AcDbMText
 10
214.2505927040593
 20
193.5427672877959
 30
0.0
 40
0.65
 41
0.0
 71
     5
 72
     1
  1
\A1;R3 7/8"
 11
0.6249070074752222
 21
-0.7806991943177363
 31
0.0
 73
     1
 44
1.0
1001
ACAD
1000
MTEXTBEGIN
1070
    73
1070
     1
1070
    44
1040
1.0
1070
    74
1070
     0
1000
MTEXTEND
  0
SOLID
  5
BC4
330
B89
100
AcDbEntity
  8
标注
100
AcDbTrace
 10
216.152606330184
 20
191.3399320567983
 30
0.0
 11
215.9834548380819
 21
191.204535538512
 31
0.0
 12
216.4742201389919
 22
190.7647793213486
 32
0.0
 13
216.4742201389919
 23
190.7647793213486
 33
0.0
  0
POINT
  5
BC5
330
B89
100
AcDbEntity
  8
Defpoints
 62
     0
100
AcDbPoint
 10
216.4742201389919
 20
190.7647793213486
 30
0.0
  0
POINT
  5
BC6
330
B89
100
AcDbEntity
  8
Defpoints
 62
     0
100
AcDbPoint
 10
214.0139563300343
 20
193.8383981966153
 30
0.0
  0
ENDBLK
  5
B90
330
B89
100
AcDbEntity
  8
0
100
AcDbBlockEnd
  0
BLOCK
  5
B9F
330
B99
100
AcDbEntity
  8
0
100
AcDbBlockBegin
  2
*D37
 70
     1
 10
0.0
 20
0.0
 30
0.0
  3
*D37
  1

  0
LINE
  5
C57
330
B99
100
AcDbEntity
  8
标注
370
    -2
100
AcDbLine
 10
202.3865620518149
 20
221.7319917512803
 30
0.0
 11
201.9092407973348
 21
221.2907838410818
 31
0.0
  0
MTEXT
  5
C58
330
B99
100
AcDbEntity
  8
标注
100
AcDbMText
 10
203.0903049270098
 20
222.3824905932394
 30
0.0
 40
0.65
 41
0.0
 71
     5
 72
     1
  1
\A1;R2"
 11
0.7343403915077306
 21
0.6787814003051889
 31
0.0
 73
     1
 44
1.0
1001
ACAD
1000
MTEXTBEGIN
1070
    73
1070
     1
1070
    44
1040
1.0
1070
    74
1070
     0
1000
MTEXTEND
  0
SOLID
  5
C59
330
B99
100
AcDbEntity
  8
标注
100
AcDbTrace
 10
201.8357061456351
 20
221.3703373834952
 30
0.0
 11
201.9827754490345
 21
221.2112302986685
 31
0.0
 12
201.4319195428548
 22
220.8495759308835
 32
0.0
 13
201.4319195428548
 23
220.8495759308835
 33
0.0
  0
POINT
  5
C5A
330
B99
100
AcDbEntity
  8
Defpoints
 62
     0
100
AcDbPoint
 10
201.4319195428548
 20
220.8495759308835
 30
0.0
  0
POINT
  5
C5B
330
B99
100
AcDbEntity
  8
Defpoints
 62
     0
100
AcDbPoint
 10
202.9006003258703
 20
222.2071387314939
 30
0.0
  0
ENDBLK
  5
BA0
330
B99
100
AcDbEntity
  8
0
100
AcDbBlockEnd
  0
BLOCK
  5
BAF
330
BA9
100
AcDbEntity
  8
0
100
AcDbBlockBegin
  2
*D38
 70
     1
 10
0.0
 20
0.0
 30
0.0
  3
*D38
  1

  0
LINE
  5
C52
330
BA9
100
AcDbEntity
  8
标注
370
    -2
100
AcDbLine
 10
220.8815930628702
 20
223.5711644544409
 30
0.0
 11
220.4051409278225
 21
223.1290181404129
 31
0.0
  0
MTEXT
  5
C53
330
BA9
100
AcDbEntity
  8
标注
100
AcDbMText
 10
221.5840545440302
 20
224.2230468405078
 30
0.0
 40
0.65
 41
0.0
 71
     5
 72
     1
  1
\A1;R2"
 11
0.733003284688714
 21
0.6802250985045732
 31
0.0
 73
     1
 44
1.0
1001
ACAD
1000
MTEXTBEGIN
1070
    73
1070
     1
1070
    44
1040
1.0
1070
    74
1070
     0
1000
MTEXTEND
  0
SOLID
  5
C54
330
BA9
100
AcDbEntity
  8
标注
100
AcDbTrace
 10
220.3314498754845
 20
223.2084268295875
 30
0.0
 11
220.4788319801605
 21
223.0496094512382
 31
0.0
 12
219.9286887927749
 22
222.6868718263849
 32
0.0
 13
219.9286887927749
 23
222.6868718263849
 33
0.0
  0
POINT
  5
C55
330
BA9
100
AcDbEntity
  8
Defpoints
 62
     0
100
AcDbPoint
 10
219.9286887927749
 20
222.6868718263849
 30
0.0
  0
POINT
  5
C56
330
BA9
100
AcDbEntity
  8
Defpoints
 62
     0
100
AcDbPoint
 10
221.3946953621523
 20
224.0473220233941
 30
0.0
  0
ENDBLK
  5
BB0
330
BA9
100
AcDbEntity
  8
0
100
AcDbBlockEnd
  0
BLOCK
  5
C6D
330
C6C
100
AcDbEntity
  8
0
100
AcDbBlockBegin
  2
*D39
 70
     1
 10
0.0
 20
0.0
 30
0.0
  3
*D39
  1

  0
LINE
  5
C6E
330
C6C
100
AcDbEntity
  8
标注
370
    -2
100
AcDbLine
 10
208.2126964875147
 20
208.4053273304736
 30
0.0
 11
196.2462173539447
 21
208.4053273304736
 31
0.0
  0
LINE
  5
C6F
330
C6C
100
AcDbEntity
  8
标注
370
    -2
100
AcDbLine
 10
203.291436644995
 20
189.9013903225996
 30
0.0
 11
196.2462173539447
 21
189.9013903225996
 31
0.0
  0
LINE
  5
C70
330
C6C
100
AcDbEntity
  8
标注
370
    -2
100
AcDbLine
 10
196.5662173539447
 20
207.7553273304736
 30
0.0
 11
196.5662173539447
 21
201.1950254932032
 31
0.0
  0
LINE
  5
C71
330
C6C
100
AcDbEntity
  8
标注
370
    -2
100
AcDbLine
 10
196.5662173539447
 20
190.5513903225996
 30
0.0
 11
196.5662173539447
 21
197.1116921598699
 31
0.0
  0
SOLID
  5
C72
330
C6C
100
AcDbEntity
  8
标注
100
AcDbTrace
 10
196.4578840206114
 20
207.7553273304736
 30
0.0
 11
196.674550687278
 21
207.7553273304736
 31
0.0
 12
196.5662173539447
 22
208.4053273304736
 32
0.0
 13
196.5662173539447
 23
208.4053273304736
 33
0.0
  0
SOLID
  5
C73
330
C6C
100
AcDbEntity
  8
标注
100
AcDbTrace
 10
196.4578840206113
 20
190.5513903225996
 30
0.0
 11
196.674550687278
 21
190.5513903225996
 31
0.0
 12
196.5662173539447
 22
189.9013903225996
 32
0.0
 13
196.5662173539447
 23
189.9013903225996
 33
0.0
  0
MTEXT
  5
C74
330
C6C
100
AcDbEntity
  8
标注
100
AcDbMText
 10
196.5662173539446
 20
199.1533588265366
 30
0.0
 40
0.65
 41
0.0
 71
     5
 72
     1
  1
\A1;18 1/2"
 11
0.0000000000000001
 21
1.0
 31
0.0
 73
     1
 44
1.0
1001
ACAD
1000
MTEXTBEGIN
1070
    73
1070
     1
1070
    44
1040
1.0
1070
    74
1070
     0
1000
MTEXTEND
  0
POINT
  5
C75
330
C6C
100
AcDbEntity
  8
Defpoints
 62
     0
100
AcDbPoint
 10
209.0926964875147
 20
208.4053273304736
 30
0.0
  0
POINT
  5
C76
330
C6C
100
AcDbEntity
  8
Defpoints
 62
     0
100
AcDbPoint
 10
204.171436644995
 20
189.9013903225996
 30
0.0
  0
POINT
  5
C77
330
C6C
100
AcDbEntity
  8
Defpoints
 62
     0
100
AcDbPoint
 10
196.5662173539447
 20
189.9013903225996
 30
0.0
  0
ENDBLK
  5
C78
330
C6C
100
AcDbEntity
  8
0
100
AcDbBlockEnd
  0
BLOCK
  5
C7A
330
C79
100
AcDbEntity
  8
0
100
AcDbBlockBegin
  2
*D40
 70
     1
 10
0.0
 20
0.0
 30
0.0
  3
*D40
  1

  0
LINE
  5
C7B
330
C79
100
AcDbEntity
  8
标注
370
    -2
100
AcDbLine
 10
205.6536413694045
 20
209.4053100857582
 30
0.0
 11
193.8752387198185
 21
209.4053100857582
 31
0.0
  0
LINE
  5
C7C
330
C79
100
AcDbEntity
  8
标注
370
    -2
100
AcDbLine
 10
203.291436644995
 20
188.9013903225995
 30
0.0
 11
193.8752387198184
 21
188.9013903225995
 31
0.0
  0
LINE
  5
C7D
330
C79
100
AcDbEntity
  8
标注
370
    -2
100
AcDbLine
 10
194.1952387198185
 20
208.7553100857582
 30
0.0
 11
194.1952387198185
 21
201.2491835375122
 31
0.0
  0
LINE
  5
C7E
330
C79
100
AcDbEntity
  8
标注
370
    -2
100
AcDbLine
 10
194.1952387198185
 20
189.5513903225996
 30
0.0
 11
194.1952387198185
 21
197.0575168708455
 31
0.0
  0
SOLID
  5
C7F
330
C79
100
AcDbEntity
  8
标注
100
AcDbTrace
 10
194.0869053864851
 20
208.7553100857582
 30
0.0
 11
194.3035720531518
 21
208.7553100857582
 31
0.0
 12
194.1952387198185
 22
209.4053100857582
 32
0.0
 13
194.1952387198185
 23
209.4053100857582
 33
0.0
  0
SOLID
  5
C80
330
C79
100
AcDbEntity
  8
标注
100
AcDbTrace
 10
194.0869053864851
 20
189.5513903225996
 30
0.0
 11
194.3035720531518
 21
189.5513903225996
 31
0.0
 12
194.1952387198185
 22
188.9013903225995
 32
0.0
 13
194.1952387198185
 23
188.9013903225995
 33
0.0
  0
MTEXT
  5
C81
330
C79
100
AcDbEntity
  8
标注
100
AcDbMText
 10
194.1952387198184
 20
199.1533502041789
 30
0.0
 40
0.65
 41
0.0
 71
     5
 72
     1
  1
\A1;20 1/2"
 11
0.0000000000000001
 21
1.0
 31
0.0
 73
     1
 44
1.0
1001
ACAD
1000
MTEXTBEGIN
1070
    73
1070
     1
1070
    44
1040
1.0
1070
    74
1070
     0
1000
MTEXTEND
  0
POINT
  5
C82
330
C79
100
AcDbEntity
  8
Defpoints
 62
     0
100
AcDbPoint
 10
206.5336413694045
 20
209.4053100857582
 30
0.0
  0
POINT
  5
C83
330
C79
100
AcDbEntity
  8
Defpoints
 62
     0
100
AcDbPoint
 10
204.171436644995
 20
188.9013903225995
 30
0.0
  0
POINT
  5
C84
330
C79
100
AcDbEntity
  8
Defpoints
 62
     0
100
AcDbPoint
 10
194.1952387198185
 20
188.9013903225995
 30
0.0
  0
ENDBLK
  5
C85
330
C79
100
AcDbEntity
  8
0
100
AcDbBlockEnd
  0
BLOCK
  5
C87
330
C86
100
AcDbEntity
  8
0
100
AcDbBlockBegin
  2
*D41
 70
     1
 10
0.0
 20
0.0
 30
0.0
  3
*D41
  1

  0
LINE
  5
C88
330
C86
100
AcDbEntity
  8
标注
370
    -2
100
AcDbLine
 10
226.5081295583807
 20
206.4369952141638
 30
0.0
 11
235.9627587817186
 21
206.4369952141638
 31
0.0
  0
LINE
  5
C89
330
C86
100
AcDbEntity
  8
标注
370
    -2
100
AcDbLine
 10
226.5081295583807
 20
189.9015621432976
 30
0.0
 11
235.9627587817186
 21
189.9015621432976
 31
0.0
  0
LINE
  5
C8A
330
C86
100
AcDbEntity
  8
标注
370
    -2
100
AcDbLine
 10
235.6427587817186
 20
205.7869952141639
 30
0.0
 11
235.6427587817186
 21
200.2109453453974
 31
0.0
  0
LINE
  5
C8B
330
C86
100
AcDbEntity
  8
标注
370
    -2
100
AcDbLine
 10
235.6427587817186
 20
190.5515621432977
 30
0.0
 11
235.6427587817186
 21
196.1276120120641
 31
0.0
  0
SOLID
  5
C8C
330
C86
100
AcDbEntity
  8
标注
100
AcDbTrace
 10
235.5344254483853
 20
205.7869952141639
 30
0.0
 11
235.7510921150519
 21
205.7869952141639
 31
0.0
 12
235.6427587817186
 22
206.4369952141638
 32
0.0
 13
235.6427587817186
 23
206.4369952141638
 33
0.0
  0
SOLID
  5
C8D
330
C86
100
AcDbEntity
  8
标注
100
AcDbTrace
 10
235.5344254483852
 20
190.5515621432977
 30
0.0
 11
235.7510921150519
 21
190.5515621432977
 31
0.0
 12
235.6427587817186
 22
189.9015621432976
 32
0.0
 13
235.6427587817186
 23
189.9015621432976
 33
0.0
  0
MTEXT
  5
C8E
330
C86
100
AcDbEntity
  8
标注
100
AcDbMText
 10
235.6427587817185
 20
198.1692786787308
 30
0.0
 40
0.65
 41
0.0
 71
     5
 72
     1
  1
\A1;16 1/2"
 11
0.0000000000000001
 21
1.0
 31
0.0
 73
     1
 44
1.0
1001
ACAD
1000
MTEXTBEGIN
1070
    73
1070
     1
1070
    44
1040
1.0
1070
    74
1070
     0
1000
MTEXTEND
  0
POINT
  5
C8F
330
C86
100
AcDbEntity
  8
Defpoints
 62
     0
100
AcDbPoint
 10
225.6281295583808
 20
206.4369952141638
 30
0.0
  0
POINT
  5
C90
330
C86
100
AcDbEntity
  8
Defpoints
 62
     0
100
AcDbPoint
 10
225.6281295583808
 20
189.9015621432976
 30
0.0
  0
POINT
  5
C91
330
C86
100
AcDbEntity
  8
Defpoints
 62
     0
100
AcDbPoint
 10
235.6427587817186
 20
189.9015621432976
 30
0.0
  0
ENDBLK
  5
C92
330
C86
100
AcDbEntity
  8
0
100
AcDbBlockEnd
  0
BLOCK
  5
C94
330
C93
100
AcDbEntity
  8
0
100
AcDbBlockBegin
  2
*D42
 70
     1
 10
0.0
 20
0.0
 30
0.0
  3
*D42
  1

  0
LINE
  5
C95
330
C93
100
AcDbEntity
  8
标注
370
    -2
100
AcDbLine
 10
229.4608854638926
 20
207.4369952141638
 30
0.0
 11
238.1228989213742
 21
207.4369952141638
 31
0.0
  0
LINE
  5
C96
330
C93
100
AcDbEntity
  8
标注
370
    -2
100
AcDbLine
 10
229.4608854638926
 20
188.9013903225995
 30
0.0
 11
238.1228989213742
 21
188.9013903225995
 31
0.0
  0
LINE
  5
C97
330
C93
100
AcDbEntity
  8
标注
370
    -2
100
AcDbLine
 10
237.8028989213742
 20
206.7869952141638
 30
0.0
 11
237.8028989213742
 21
200.2108594350484
 31
0.0
  0
LINE
  5
C98
330
C93
100
AcDbEntity
  8
标注
370
    -2
100
AcDbLine
 10
237.8028989213742
 20
189.5513903225996
 30
0.0
 11
237.8028989213742
 21
196.127526101715
 31
0.0
  0
SOLID
  5
C99
330
C93
100
AcDbEntity
  8
标注
100
AcDbTrace
 10
237.6945655880409
 20
206.7869952141638
 30
0.0
 11
237.9112322547076
 21
206.7869952141638
 31
0.0
 12
237.8028989213742
 22
207.4369952141638
 32
0.0
 13
237.8028989213742
 23
207.4369952141638
 33
0.0
  0
SOLID
  5
C9A
330
C93
100
AcDbEntity
  8
标注
100
AcDbTrace
 10
237.6945655880409
 20
189.5513903225996
 30
0.0
 11
237.9112322547075
 21
189.5513903225996
 31
0.0
 12
237.8028989213742
 22
188.9013903225995
 32
0.0
 13
237.8028989213742
 23
188.9013903225995
 33
0.0
  0
MTEXT
  5
C9B
330
C93
100
AcDbEntity
  8
标注
100
AcDbMText
 10
237.8028989213742
 20
198.1691927683817
 30
0.0
 40
0.65
 41
0.0
 71
     5
 72
     1
  1
\A1;18 1/2"
 11
0.0000000000000001
 21
1.0
 31
0.0
 73
     1
 44
1.0
1001
ACAD
1000
MTEXTBEGIN
1070
    73
1070
     1
1070
    44
1040
1.0
1070
    74
1070
     0
1000
MTEXTEND
  0
POINT
  5
C9C
330
C93
100
AcDbEntity
  8
Defpoints
 62
     0
100
AcDbPoint
 10
228.5808854638926
 20
207.4369952141638
 30
0.0
  0
POINT
  5
C9D
330
C93
100
AcDbEntity
  8
Defpoints
 62
     0
100
AcDbPoint
 10
228.5808854638926
 20
188.9013903225995
 30
0.0
  0
POINT
  5
C9E
330
C93
100
AcDbEntity
  8
Defpoints
 62
     0
100
AcDbPoint
 10
237.8028989213742
 20
188.9013903225995
 30
0.0
  0
ENDBLK
  5
C9F
330
C93
100
AcDbEntity
  8
0
100
AcDbBlockEnd
  0
BLOCK
  5
CA1
330
CA0
100
AcDbEntity
  8
0
100
AcDbBlockBegin
  2
*D43
 70
     1
 10
0.0
 20
0.0
 30
0.0
  3
*D43
  1

  0
LINE
  5
CA2
330
CA0
100
AcDbEntity
  8
标注
370
    -2
100
AcDbLine
 10
219.1320665662548
 20
197.2892786787308
 30
0.0
 11
219.1320665662548
 21
185.9859484721582
 31
0.0
  0
LINE
  5
CA3
330
CA0
100
AcDbEntity
  8
标注
370
    -2
100
AcDbLine
 10
232.1241925505068
 20
197.2892786787309
 30
0.0
 11
232.1241925505068
 21
185.9859484721582
 31
0.0
  0
LINE
  5
CA4
330
CA0
100
AcDbEntity
  8
标注
370
    -2
100
AcDbLine
 10
219.7820665662548
 20
186.3059484721581
 30
0.0
 11
224.7781295583808
 21
186.3059484721581
 31
0.0
  0
LINE
  5
CA5
330
CA0
100
AcDbEntity
  8
标注
370
    -2
100
AcDbLine
 10
231.4741925505068
 20
186.3059484721581
 30
0.0
 11
226.4781295583808
 21
186.3059484721581
 31
0.0
  0
SOLID
  5
CA6
330
CA0
100
AcDbEntity
  8
标注
100
AcDbTrace
 10
219.7820665662548
 20
186.4142818054915
 30
0.0
 11
219.7820665662548
 21
186.1976151388248
 31
0.0
 12
219.1320665662548
 22
186.3059484721581
 32
0.0
 13
219.1320665662548
 23
186.3059484721581
 33
0.0
  0
SOLID
  5
CA7
330
CA0
100
AcDbEntity
  8
标注
100
AcDbTrace
 10
231.4741925505068
 20
186.4142818054915
 30
0.0
 11
231.4741925505068
 21
186.1976151388248
 31
0.0
 12
232.1241925505068
 22
186.3059484721581
 32
0.0
 13
232.1241925505068
 23
186.3059484721581
 33
0.0
  0
MTEXT
  5
CA8
330
CA0
100
AcDbEntity
  8
标注
100
AcDbMText
 10
225.6281295583808
 20
186.3059484721581
 30
0.0
 40
0.65
 41
0.0
 71
     5
 72
     1
  1
\A1;13"
 73
     1
 44
1.0
1001
ACAD
1000
MTEXTBEGIN
1070
    73
1070
     1
1070
    44
1040
1.0
1070
    74
1070
     0
1000
MTEXTEND
  0
POINT
  5
CA9
330
CA0
100
AcDbEntity
  8
Defpoints
 62
     0
100
AcDbPoint
 10
219.1320665662548
 20
198.1692786787308
 30
0.0
  0
POINT
  5
CAA
330
CA0
100
AcDbEntity
  8
Defpoints
 62
     0
100
AcDbPoint
 10
232.1241925505068
 20
198.1692786787309
 30
0.0
  0
POINT
  5
CAB
330
CA0
100
AcDbEntity
  8
Defpoints
 62
     0
100
AcDbPoint
 10
232.1241925505068
 20
186.3059484721581
 30
0.0
  0
ENDBLK
  5
CAC
330
CA0
100
AcDbEntity
  8
0
100
AcDbBlockEnd
  0
BLOCK
  5
CAE
330
CAD
100
AcDbEntity
  8
0
100
AcDbBlockBegin
  2
*D44
 70
     1
 10
0.0
 20
0.0
 30
0.0
  3
*D44
  1

  0
LINE
  5
CAF
330
CAD
100
AcDbEntity
  8
标注
370
    -2
100
AcDbLine
 10
200.2344287709792
 20
192.9583981966153
 30
0.0
 11
200.2344287709792
 21
185.9763542414809
 31
0.0
  0
LINE
  5
CB0
330
CAD
100
AcDbEntity
  8
标注
370
    -2
100
AcDbLine
 10
217.9509642040501
 20
192.9583981966153
 30
0.0
 11
217.9509642040501
 21
185.9763542414809
 31
0.0
  0
LINE
  5
CB1
330
CAD
100
AcDbEntity
  8
标注
370
    -2
100
AcDbLine
 10
200.8844287709792
 20
186.2963542414809
 30
0.0
 11
206.9426964875146
 21
186.2963542414809
 31
0.0
  0
LINE
  5
CB2
330
CAD
100
AcDbEntity
  8
标注
370
    -2
100
AcDbLine
 10
217.3009642040501
 20
186.2963542414809
 30
0.0
 11
211.2426964875146
 21
186.2963542414809
 31
0.0
  0
SOLID
  5
CB3
330
CAD
100
AcDbEntity
  8
标注
100
AcDbTrace
 10
200.8844287709792
 20
186.4046875748142
 30
0.0
 11
200.8844287709792
 21
186.1880209081476
 31
0.0
 12
200.2344287709792
 22
186.2963542414809
 32
0.0
 13
200.2344287709792
 23
186.2963542414809
 33
0.0
  0
SOLID
  5
CB4
330
CAD
100
AcDbEntity
  8
标注
100
AcDbTrace
 10
217.3009642040501
 20
186.4046875748142
 30
0.0
 11
217.3009642040501
 21
186.1880209081476
 31
0.0
 12
217.9509642040501
 22
186.2963542414809
 32
0.0
 13
217.9509642040501
 23
186.2963542414809
 33
0.0
  0
MTEXT
  5
CB5
330
CAD
100
AcDbEntity
  8
标注
100
AcDbMText
 10
209.0926964875146
 20
186.2963542414809
 30
0.0
 40
0.65
 41
0.0
 71
     5
 72
     1
  1
\A1;17 3/4"
 73
     1
 44
1.0
1001
ACAD
1000
MTEXTBEGIN
1070
    73
1070
     1
1070
    44
1040
1.0
1070
    74
1070
     0
1000
MTEXTEND
  0
POINT
  5
CB6
330
CAD
100
AcDbEntity
  8
Defpoints
 62
     0
100
AcDbPoint
 10
200.2344287709792
 20
193.8383981966153
 30
0.0
  0
POINT
  5
CB7
330
CAD
100
AcDbEntity
  8
Defpoints
 62
     0
100
AcDbPoint
 10
217.9509642040501
 20
193.8383981966153
 30
0.0
  0
POINT
  5
CB8
330
CAD
100
AcDbEntity
  8
Defpoints
 62
     0
100
AcDbPoint
 10
217.9509642040501
 20
186.2963542414809
 30
0.0
  0
ENDBLK
  5
CB9
330
CAD
100
AcDbEntity
  8
0
100
AcDbBlockEnd
  0
BLOCK
  5
CBB
330
CBA
100
AcDbEntity
  8
0
100
AcDbBlockBegin
  2
*D45
 70
     1
 10
0.0
 20
0.0
 30
0.0
  3
*D45
  1

  0
LINE
  5
CBC
330
CBA
100
AcDbEntity
  8
标注
370
    -2
100
AcDbLine
 10
199.2344287709792
 20
192.9583981966153
 30
0.0
 11
199.2344287709792
 21
183.7624627921467
 31
0.0
  0
LINE
  5
CBD
330
CBA
100
AcDbEntity
  8
标注
370
    -2
100
AcDbLine
 10
233.1241925505068
 20
192.9583981966153
 30
0.0
 11
233.1241925505068
 21
183.7624627921467
 31
0.0
  0
LINE
  5
CBE
330
CBA
100
AcDbEntity
  8
标注
370
    -2
100
AcDbLine
 10
199.8844287709792
 20
184.0824627921467
 30
0.0
 11
213.9209773274097
 21
184.0824627921467
 31
0.0
  0
LINE
  5
CBF
330
CBA
100
AcDbEntity
  8
标注
370
    -2
100
AcDbLine
 10
232.4741925505067
 20
184.0824627921467
 30
0.0
 11
218.4376439940763
 21
184.0824627921467
 31
0.0
  0
SOLID
  5
CC0
330
CBA
100
AcDbEntity
  8
标注
100
AcDbTrace
 10
199.8844287709792
 20
184.1907961254801
 30
0.0
 11
199.8844287709792
 21
183.9741294588134
 31
0.0
 12
199.2344287709792
 22
184.0824627921467
 32
0.0
 13
199.2344287709792
 23
184.0824627921467
 33
0.0
  0
SOLID
  5
CC1
330
CBA
100
AcDbEntity
  8
标注
100
AcDbTrace
 10
232.4741925505067
 20
184.1907961254801
 30
0.0
 11
232.4741925505067
 21
183.9741294588134
 31
0.0
 12
233.1241925505068
 22
184.0824627921467
 32
0.0
 13
233.1241925505068
 23
184.0824627921467
 33
0.0
  0
MTEXT
  5
CC2
330
CBA
100
AcDbEntity
  8
标注
100
AcDbMText
 10
216.179310660743
 20
184.0824627921467
 30
0.0
 40
0.65
 41
0.0
 71
     5
 72
     1
  1
\A1;33 7/8"
 73
     1
 44
1.0
1001
ACAD
1000
MTEXTBEGIN
1070
    73
1070
     1
1070
    44
1040
1.0
1070
    74
1070
     0
1000
MTEXTEND
  0
POINT
  5
CC3
330
CBA
100
AcDbEntity
  8
Defpoints
 62
     0
100
AcDbPoint
 10
199.2344287709792
 20
193.8383981966153
 30
0.0
  0
POINT
  5
CC4
330
CBA
100
AcDbEntity
  8
Defpoints
 62
     0
100
AcDbPoint
 10
233.1241925505068
 20
193.8383981966153
 30
0.0
  0
POINT
  5
CC5
330
CBA
100
AcDbEntity
  8
Defpoints
 62
     0
100
AcDbPoint
 10
233.1241925505068
 20
184.0824627921467
 30
0.0
  0
ENDBLK
  5
CC6
330
CBA
100
AcDbEntity
  8
0
100
AcDbBlockEnd
  0
BLOCK
  5
CC8
330
CC7
100
AcDbEntity
  8
0
100
AcDbBlockBegin
  2
*D46
 70
     1
 10
0.0
 20
0.0
 30
0.0
  3
*D46
  1

  0
LINE
  5
CC9
330
CC7
100
AcDbEntity
  8
标注
370
    -2
100
AcDbLine
 10
232.1241925505068
 20
197.2892786787307
 30
0.0
 11
232.1241925505068
 21
185.9859484721582
 31
0.0
  0
LINE
  5
CCA
330
CC7
100
AcDbEntity
  8
标注
370
    -2
100
AcDbLine
 10
233.1241925505068
 20
192.5646974092138
 30
0.0
 11
233.1241925505068
 21
185.9859484721582
 31
0.0
  0
LINE
  5
CCB
330
CC7
100
AcDbEntity
  8
标注
370
    -2
100
AcDbLine
 10
231.4741925505068
 20
186.3059484721581
 30
0.0
 11
230.8241925505068
 21
186.3059484721581
 31
0.0
  0
LINE
  5
CCC
330
CC7
100
AcDbEntity
  8
标注
370
    -2
100
AcDbLine
 10
233.7741925505067
 20
186.3059484721581
 30
0.0
 11
234.4241925505067
 21
186.3059484721581
 31
0.0
  0
LINE
  5
CCD
330
CC7
100
AcDbEntity
  8
标注
370
    -2
100
AcDbLine
 10
232.1241925505068
 20
186.3059484721581
 30
0.0
 11
233.1241925505068
 21
186.3059484721581
 31
0.0
  0
SOLID
  5
CCE
330
CC7
100
AcDbEntity
  8
标注
100
AcDbTrace
 10
231.4741925505068
 20
186.4142818054915
 30
0.0
 11
231.4741925505068
 21
186.1976151388248
 31
0.0
 12
232.1241925505068
 22
186.3059484721581
 32
0.0
 13
232.1241925505068
 23
186.3059484721581
 33
0.0
  0
SOLID
  5
CCF
330
CC7
100
AcDbEntity
  8
标注
100
AcDbTrace
 10
233.7741925505067
 20
186.4142818054915
 30
0.0
 11
233.7741925505067
 21
186.1976151388248
 31
0.0
 12
233.1241925505068
 22
186.3059484721581
 32
0.0
 13
233.1241925505068
 23
186.3059484721581
 33
0.0
  0
MTEXT
  5
CD0
330
CC7
100
AcDbEntity
  8
标注
100
AcDbMText
 10
234.9491925505067
 20
186.3059484721581
 30
0.0
 40
0.65
 41
0.0
 71
     5
 72
     1
  1
\A1;1"
 73
     1
 44
1.0
1001
ACAD
1000
MTEXTBEGIN
1070
    73
1070
     1
1070
    44
1040
1.0
1070
    74
1070
     0
1000
MTEXTEND
  0
POINT
  5
CD1
330
CC7
100
AcDbEntity
  8
Defpoints
 62
     0
100
AcDbPoint
 10
232.1241925505068
 20
198.1692786787307
 30
0.0
  0
POINT
  5
CD2
330
CC7
100
AcDbEntity
  8
Defpoints
 62
     0
100
AcDbPoint
 10
233.1241925505068
 20
193.4446974092138
 30
0.0
  0
POINT
  5
CD3
330
CC7
100
AcDbEntity
  8
Defpoints
 62
     0
100
AcDbPoint
 10
233.1241925505068
 20
186.3059484721581
 30
0.0
  0
ENDBLK
  5
CD4
330
CC7
100
AcDbEntity
  8
0
100
AcDbBlockEnd
  0
BLOCK
  5
CD6
330
CD5
100
AcDbEntity
  8
0
100
AcDbBlockBegin
  2
*D47
 70
     1
 10
0.0
 20
0.0
 30
0.0
  3
*D47
  1

  0
LINE
  5
CD7
330
CD5
100
AcDbEntity
  8
标注
370
    -2
100
AcDbLine
 10
219.1320665662548
 20
197.2892786787307
 30
0.0
 11
219.1320665662548
 21
197.5166047187522
 31
0.0
  0
LINE
  5
CD8
330
CD5
100
AcDbEntity
  8
标注
370
    -2
100
AcDbLine
 10
217.9509642040501
 20
197.2892786787307
 30
0.0
 11
217.9509642040501
 21
197.5166047187522
 31
0.0
  0
LINE
  5
CD9
330
CD5
100
AcDbEntity
  8
标注
370
    -2
100
AcDbLine
 10
219.7820665662548
 20
197.8366047187521
 30
0.0
 11
220.4320665662548
 21
197.8366047187521
 31
0.0
  0
LINE
  5
CDA
330
CD5
100
AcDbEntity
  8
标注
370
    -2
100
AcDbLine
 10
217.3009642040501
 20
197.8366047187521
 30
0.0
 11
216.6509642040501
 21
197.8366047187521
 31
0.0
  0
LINE
  5
CDB
330
CD5
100
AcDbEntity
  8
标注
370
    -2
100
AcDbLine
 10
219.1320665662548
 20
197.8366047187521
 30
0.0
 11
217.9509642040501
 21
197.8366047187521
 31
0.0
  0
SOLID
  5
CDC
330
CD5
100
AcDbEntity
  8
标注
100
AcDbTrace
 10
219.7820665662548
 20
197.9449380520854
 30
0.0
 11
219.7820665662548
 21
197.7282713854189
 31
0.0
 12
219.1320665662548
 22
197.8366047187521
 32
0.0
 13
219.1320665662548
 23
197.8366047187521
 33
0.0
  0
SOLID
  5
CDD
330
CD5
100
AcDbEntity
  8
标注
100
AcDbTrace
 10
217.3009642040501
 20
197.9449380520854
 30
0.0
 11
217.3009642040501
 21
197.7282713854189
 31
0.0
 12
217.9509642040501
 22
197.8366047187521
 32
0.0
 13
217.9509642040501
 23
197.8366047187521
 33
0.0
  0
MTEXT
  5
CDE
330
CD5
100
AcDbEntity
  8
标注
100
AcDbMText
 10
214.9342975373834
 20
197.8366047187521
 30
0.0
 40
0.65
 41
0.0
 71
     5
 72
     1
  1
\A1;1 1/8"
 73
     1
 44
1.0
1001
ACAD
1000
MTEXTBEGIN
1070
    73
1070
     1
1070
    44
1040
1.0
1070
    74
1070
     0
1000
MTEXTEND
  0
POINT
  5
CDF
330
CD5
100
AcDbEntity
  8
Defpoints
 62
     0
100
AcDbPoint
 10
219.1320665662548
 20
198.1692786787307
 30
0.0
  0
POINT
  5
CE0
330
CD5
100
AcDbEntity
  8
Defpoints
 62
     0
100
AcDbPoint
 10
217.9509642040501
 20
198.1692786787307
 30
0.0
  0
POINT
  5
CE1
330
CD5
100
AcDbEntity
  8
Defpoints
 62
     0
100
AcDbPoint
 10
217.9509642040501
 20
197.8366047187521
 30
0.0
  0
ENDBLK
  5
CE2
330
CD5
100
AcDbEntity
  8
0
100
AcDbBlockEnd
  0
BLOCK
  5
CE4
330
CE3
100
AcDbEntity
  8
0
100
AcDbBlockBegin
  2
*D48
 70
     1
 10
0.0
 20
0.0
 30
0.0
  3
*D48
  1

  0
LINE
  5
CE5
330
CE3
100
AcDbEntity
  8
标注
370
    -2
100
AcDbLine
 10
226.5081295583807
 20
206.4369952141638
 30
0.0
 11
235.9627587817186
 21
206.4369952141638
 31
0.0
  0
LINE
  5
CE6
330
CE3
100
AcDbEntity
  8
标注
370
    -2
100
AcDbLine
 10
229.4608854638926
 20
207.4369952141638
 30
0.0
 11
235.9627587817186
 21
207.4369952141638
 31
0.0
  0
LINE
  5
CE7
330
CE3
100
AcDbEntity
  8
标注
370
    -2
100
AcDbLine
 10
235.6427587817186
 20
205.7869952141639
 30
0.0
 11
235.6427587817186
 21
205.1369952141639
 31
0.0
  0
LINE
  5
CE8
330
CE3
100
AcDbEntity
  8
标注
370
    -2
100
AcDbLine
 10
235.6427587817186
 20
208.0869952141638
 30
0.0
 11
235.6427587817186
 21
208.7369952141638
 31
0.0
  0
LINE
  5
CE9
330
CE3
100
AcDbEntity
  8
标注
370
    -2
100
AcDbLine
 10
235.6427587817186
 20
206.4369952141638
 30
0.0
 11
235.6427587817186
 21
207.4369952141638
 31
0.0
  0
SOLID
  5
CEA
330
CE3
100
AcDbEntity
  8
标注
100
AcDbTrace
 10
235.5344254483852
 20
205.7869952141639
 30
0.0
 11
235.7510921150519
 21
205.7869952141639
 31
0.0
 12
235.6427587817186
 22
206.4369952141638
 32
0.0
 13
235.6427587817186
 23
206.4369952141638
 33
0.0
  0
SOLID
  5
CEB
330
CE3
100
AcDbEntity
  8
标注
100
AcDbTrace
 10
235.5344254483852
 20
208.0869952141638
 30
0.0
 11
235.7510921150519
 21
208.0869952141638
 31
0.0
 12
235.6427587817186
 22
207.4369952141638
 32
0.0
 13
235.6427587817186
 23
207.4369952141638
 33
0.0
  0
MTEXT
  5
CEC
330
CE3
100
AcDbEntity
  8
标注
100
AcDbMText
 10
235.6427587817185
 20
209.2619952141638
 30
0.0
 40
0.65
 41
0.0
 71
     5
 72
     1
  1
\A1;1"
 11
0.0000000000000001
 21
1.0
 31
0.0
 73
     1
 44
1.0
1001
ACAD
1000
MTEXTBEGIN
1070
    73
1070
     1
1070
    44
1040
1.0
1070
    74
1070
     0
1000
MTEXTEND
  0
POINT
  5
CED
330
CE3
100
AcDbEntity
  8
Defpoints
 62
     0
100
AcDbPoint
 10
225.6281295583808
 20
206.4369952141638
 30
0.0
  0
POINT
  5
CEE
330
CE3
100
AcDbEntity
  8
Defpoints
 62
     0
100
AcDbPoint
 10
228.5808854638926
 20
207.4369952141638
 30
0.0
  0
POINT
  5
CEF
330
CE3
100
AcDbEntity
  8
Defpoints
 62
     0
100
AcDbPoint
 10
235.6427587817186
 20
207.4369952141638
 30
0.0
  0
ENDBLK
  5
CF0
330
CE3
100
AcDbEntity
  8
0
100
AcDbBlockEnd
  0
BLOCK
  5
CF2
330
CF1
100
AcDbEntity
  8
0
100
AcDbBlockBegin
  2
*D49
 70
     1
 10
0.0
 20
0.0
 30
0.0
  3
*D49
  1

  0
LINE
  5
CF3
330
CF1
100
AcDbEntity
  8
标注
370
    -2
100
AcDbLine
 10
208.2126964875147
 20
208.4053273304736
 30
0.0
 11
196.2462173539447
 21
208.4053273304736
 31
0.0
  0
LINE
  5
CF4
330
CF1
100
AcDbEntity
  8
标注
370
    -2
100
AcDbLine
 10
205.6536413694045
 20
209.4053100857582
 30
0.0
 11
196.2462173539447
 21
209.4053100857582
 31
0.0
  0
LINE
  5
CF5
330
CF1
100
AcDbEntity
  8
标注
370
    -2
100
AcDbLine
 10
196.5662173539447
 20
207.7553273304736
 30
0.0
 11
196.5662173539447
 21
207.1053273304736
 31
0.0
  0
LINE
  5
CF6
330
CF1
100
AcDbEntity
  8
标注
370
    -2
100
AcDbLine
 10
196.5662173539447
 20
210.0553100857581
 30
0.0
 11
196.5662173539447
 21
210.7053100857581
 31
0.0
  0
LINE
  5
CF7
330
CF1
100
AcDbEntity
  8
标注
370
    -2
100
AcDbLine
 10
196.5662173539447
 20
208.4053273304736
 30
0.0
 11
196.5662173539447
 21
209.4053100857582
 31
0.0
  0
SOLID
  5
CF8
330
CF1
100
AcDbEntity
  8
标注
100
AcDbTrace
 10
196.4578840206113
 20
207.7553273304736
 30
0.0
 11
196.674550687278
 21
207.7553273304736
 31
0.0
 12
196.5662173539447
 22
208.4053273304736
 32
0.0
 13
196.5662173539447
 23
208.4053273304736
 33
0.0
  0
SOLID
  5
CF9
330
CF1
100
AcDbEntity
  8
标注
100
AcDbTrace
 10
196.4578840206113
 20
210.0553100857581
 30
0.0
 11
196.674550687278
 21
210.0553100857581
 31
0.0
 12
196.5662173539447
 22
209.4053100857582
 32
0.0
 13
196.5662173539447
 23
209.4053100857582
 33
0.0
  0
MTEXT
  5
CFA
330
CF1
100
AcDbEntity
  8
标注
100
AcDbMText
 10
196.5662173539446
 20
211.2303100857582
 30
0.0
 40
0.65
 41
0.0
 71
     5
 72
     1
  1
\A1;1"
 11
0.0000000000000001
 21
1.0
 31
0.0
 73
     1
 44
1.0
1001
ACAD
1000
MTEXTBEGIN
1070
    73
1070
     1
1070
    44
1040
1.0
1070
    74
1070
     0
1000
MTEXTEND
  0
POINT
  5
CFB
330
CF1
100
AcDbEntity
  8
Defpoints
 62
     0
100
AcDbPoint
 10
209.0926964875147
 20
208.4053273304736
 30
0.0
  0
POINT
  5
CFC
330
CF1
100
AcDbEntity
  8
Defpoints
 62
     0
100
AcDbPoint
 10
206.5336413694045
 20
209.4053100857582
 30
0.0
  0
POINT
  5
CFD
330
CF1
100
AcDbEntity
  8
Defpoints
 62
     0
100
AcDbPoint
 10
196.5662173539447
 20
209.4053100857582
 30
0.0
  0
ENDBLK
  5
CFE
330
CF1
100
AcDbEntity
  8
0
100
AcDbBlockEnd
  0
BLOCK
  5
D00
330
CFF
100
AcDbEntity
  8
0
100
AcDbBlockBegin
  2
*D50
 70
     1
 10
0.0
 20
0.0
 30
0.0
  3
*D50
  1

  0
LINE
  5
D01
330
CFF
100
AcDbEntity
  8
标注
370
    -2
100
AcDbLine
 10
212.6999736020652
 20
206.7228944286465
 30
0.0
 11
212.8362639246457
 21
207.358445329811
 31
0.0
  0
MTEXT
  5
D02
330
CFF
100
AcDbEntity
  8
标注
100
AcDbMText
 10
212.2037370429259
 20
204.4088373013299
 30
0.0
 40
0.65
 41
0.0
 71
     5
 72
     1
  1
\A1;R18 1/2"
 11
0.2096774193546185
 21
0.9777706171760264
 31
0.0
 73
     1
 44
1.0
1001
ACAD
1000
MTEXTBEGIN
1070
    73
1070
     1
1070
    44
1040
1.0
1070
    74
1070
     0
1000
MTEXTEND
  0
SOLID
  5
D03
330
CFF
100
AcDbEntity
  8
标注
100
AcDbTrace
 10
212.7303387744517
 20
207.3811603835743
 30
0.0
 11
212.9421890748398
 21
207.3357302760475
 31
0.0
 12
212.9725542472262
 22
207.9939962309754
 32
0.0
 13
212.9725542472262
 23
207.9939962309754
 33
0.0
  0
POINT
  5
D04
330
CFF
100
AcDbEntity
  8
Defpoints
 62
     0
100
AcDbPoint
 10
212.9725542472262
 20
207.9939962309754
 30
0.0
  0
POINT
  5
D05
330
CFF
100
AcDbEntity
  8
Defpoints
 62
     0
100
AcDbPoint
 10
209.0926964875147
 20
189.9013903225996
 30
0.0
  0
ENDBLK
  5
D06
330
CFF
100
AcDbEntity
  8
0
100
AcDbBlockEnd
  0
BLOCK
  5
D08
330
D07
100
AcDbEntity
  8
0
100
AcDbBlockBegin
  2
*D51
 70
     1
 10
0.0
 20
0.0
 30
0.0
  3
*D51
  1

  0
LINE
  5
D09
330
D07
100
AcDbEntity
  8
标注
370
    -2
100
AcDbLine
 10
216.0292912140767
 20
204.2492001036627
 30
0.0
 11
216.598460996212
 21
204.563120092042
 31
0.0
  0
MTEXT
  5
D0A
330
D07
100
AcDbEntity
  8
标注
100
AcDbMText
 10
214.1466527039368
 20
203.2108493728699
 30
0.0
 40
0.65
 41
0.0
 71
     5
 72
     1
  1
\A1;R6 1/4"
 11
0.8756458186697425
 21
0.4829538282757433
 31
0.0
 73
     1
 44
1.0
1001
ACAD
1000
MTEXTBEGIN
1070
    73
1070
     1
1070
    44
1040
1.0
1070
    74
1070
     0
1000
MTEXTEND
  0
SOLID
  5
D0B
330
D07
100
AcDbEntity
  8
标注
100
AcDbTrace
 10
216.5461409981488
 20
204.6579817223978
 30
0.0
 11
216.6507809942753
 21
204.4682584616861
 31
0.0
 12
217.1676307783473
 22
204.8770400804212
 32
0.0
 13
217.1676307783473
 23
204.8770400804212
 33
0.0
  0
POINT
  5
D0C
330
D07
100
AcDbEntity
  8
Defpoints
 62
     0
100
AcDbPoint
 10
217.1676307783473
 20
204.8770400804212
 30
0.0
  0
POINT
  5
D0D
330
D07
100
AcDbEntity
  8
Defpoints
 62
     0
100
AcDbPoint
 10
211.6517516056249
 20
201.8348112408892
 30
0.0
  0
ENDBLK
  5
D0E
330
D07
100
AcDbEntity
  8
0
100
AcDbBlockEnd
  0
BLOCK
  5
D10
330
D0F
100
AcDbEntity
  8
0
100
AcDbBlockBegin
  2
*D52
 70
     1
 10
0.0
 20
0.0
 30
0.0
  3
*D52
  1

  0
LINE
  5
D11
330
D0F
100
AcDbEntity
  8
标注
370
    -2
100
AcDbLine
 10
221.2342415717706
 20
192.0728195303568
 30
0.0
 11
220.7524320725761
 21
191.6365173340684
 31
0.0
  0
MTEXT
  5
D12
330
D0F
100
AcDbEntity
  8
标注
100
AcDbMText
 10
222.8279191460292
 20
193.5159729488488
 30
0.0
 40
0.65
 41
0.0
 71
     5
 72
     1
  1
\A1;R3 1/2"
 11
0.741245383376088
 21
0.6712341481358325
 31
0.0
 73
     1
 44
1.0
1001
ACAD
1000
MTEXTBEGIN
1070
    73
1070
     1
1070
    44
1040
1.0
1070
    74
1070
     0
1000
MTEXTEND
  0
SOLID
  5
D13
330
D0F
100
AcDbEntity
  8
标注
100
AcDbTrace
 10
220.6797150398614
 20
191.7168189172676
 30
0.0
 11
220.8251491052908
 21
191.5562157508694
 31
0.0
 12
220.2706225733817
 22
191.2002151377802
 32
0.0
 13
220.2706225733817
 23
191.2002151377802
 33
0.0
  0
POINT
  5
D14
330
D0F
100
AcDbEntity
  8
Defpoints
 62
     0
100
AcDbPoint
 10
220.2706225733817
 20
191.2002151377802
 30
0.0
  0
POINT
  5
D15
330
D0F
100
AcDbEntity
  8
Defpoints
 62
     0
100
AcDbPoint
 10
222.8970825932182
 20
193.5786038516473
 30
0.0
  0
ENDBLK
  5
D16
330
D0F
100
AcDbEntity
  8
0
100
AcDbBlockEnd
  0
BLOCK
  5
D18
330
D17
100
AcDbEntity
  8
0
100
AcDbBlockBegin
  2
*D53
 70
     1
 10
0.0
 20
0.0
 30
0.0
  3
*D53
  1

  0
LINE
  5
D19
330
D17
100
AcDbEntity
  8
标注
370
    -2
100
AcDbLine
 10
215.6618410292741
 20
191.7796882739617
 30
0.0
 11
216.068030584133
 21
191.2722337976552
 31
0.0
  0
MTEXT
  5
D1A
330
D17
100
AcDbEntity
  8
标注
100
AcDbMText
 10
214.2505927040593
 20
193.5427672877959
 30
0.0
 40
0.65
 41
0.0
 71
     5
 72
     1
  1
\A1;R3 7/8"
 11
0.6249070074752222
 21
-0.7806991943177363
 31
0.0
 73
     1
 44
1.0
1001
ACAD
1000
MTEXTBEGIN
1070
    73
1070
     1
1070
    44
1040
1.0
1070
    74
1070
     0
1000
MTEXTEND
  0
SOLID
  5
D1B
330
D17
100
AcDbEntity
  8
标注
100
AcDbTrace
 10
216.152606330184
 20
191.3399320567983
 30
0.0
 11
215.9834548380819
 21
191.204535538512
 31
0.0
 12
216.4742201389919
 22
190.7647793213486
 32
0.0
 13
216.4742201389919
 23
190.7647793213486
 33
0.0
  0
POINT
  5
D1C
330
D17
100
AcDbEntity
  8
Defpoints
 62
     0
100
AcDbPoint
 10
216.4742201389919
 20
190.7647793213486
 30
0.0
  0
POINT
  5
D1D
330
D17
100
AcDbEntity
  8
Defpoints
 62
     0
100
AcDbPoint
 10
214.0139563300343
 20
193.8383981966153
 30
0.0
  0
ENDBLK
  5
D1E
330
D17
100
AcDbEntity
  8
0
100
AcDbBlockEnd
  0
BLOCK
  5
DD1
330
DC5
100
AcDbEntity
  8
0
100
AcDbBlockBegin
  2
*D54
 70
     1
 10
0.0
 20
0.0
 30
0.0
  3
*D54
  1

  0
LINE
  5
E01
330
DC5
100
AcDbEntity
  8
标注
370
    -2
100
AcDbLine
 10
206.7300088410873
 20
168.373365273683
 30
0.0
 11
194.7635297075173
 21
168.373365273683
 31
0.0
  0
LINE
  5
E02
330
DC5
100
AcDbEntity
  8
标注
370
    -2
100
AcDbLine
 10
204.1709537229771
 20
169.3733480289677
 30
0.0
 11
194.7635297075173
 21
169.3733480289677
 31
0.0
  0
LINE
  5
E03
330
DC5
100
AcDbEntity
  8
标注
370
    -2
100
AcDbLine
 10
195.0835297075173
 20
167.7233652736831
 30
0.0
 11
195.0835297075173
 21
167.0733652736831
 31
0.0
  0
LINE
  5
E04
330
DC5
100
AcDbEntity
  8
标注
370
    -2
100
AcDbLine
 10
195.0835297075173
 20
170.0233480289677
 30
0.0
 11
195.0835297075173
 21
170.6733480289677
 31
0.0
  0
LINE
  5
E05
330
DC5
100
AcDbEntity
  8
标注
370
    -2
100
AcDbLine
 10
195.0835297075173
 20
168.373365273683
 30
0.0
 11
195.0835297075173
 21
169.3733480289677
 31
0.0
  0
SOLID
  5
E06
330
DC5
100
AcDbEntity
  8
标注
100
AcDbTrace
 10
194.975196374184
 20
167.7233652736831
 30
0.0
 11
195.1918630408506
 21
167.7233652736831
 31
0.0
 12
195.0835297075173
 22
168.373365273683
 32
0.0
 13
195.0835297075173
 23
168.373365273683
 33
0.0
  0
SOLID
  5
E07
330
DC5
100
AcDbEntity
  8
标注
100
AcDbTrace
 10
194.975196374184
 20
170.0233480289677
 30
0.0
 11
195.1918630408506
 21
170.0233480289677
 31
0.0
 12
195.0835297075173
 22
169.3733480289677
 32
0.0
 13
195.0835297075173
 23
169.3733480289677
 33
0.0
  0
MTEXT
  5
E08
330
DC5
100
AcDbEntity
  8
标注
100
AcDbMText
 10
195.0835297075173
 20
171.1983480289676
 30
0.0
 40
0.65
 41
0.0
 71
     5
 72
     1
  1
\A1;1"
 11
0.0000000000000001
 21
1.0
 31
0.0
 73
     1
 44
1.0
1001
ACAD
1000
MTEXTBEGIN
1070
    73
1070
     1
1070
    44
1040
1.0
1070
    74
1070
     0
1000
MTEXTEND
  0
POINT
  5
E09
330
DC5
100
AcDbEntity
  8
Defpoints
 62
     0
100
AcDbPoint
 10
207.6100088410873
 20
168.373365273683
 30
0.0
  0
POINT
  5
E0A
330
DC5
100
AcDbEntity
  8
Defpoints
 62
     0
100
AcDbPoint
 10
205.0509537229771
 20
169.3733480289677
 30
0.0
  0
POINT
  5
E0B
330
DC5
100
AcDbEntity
  8
Defpoints
 62
     0
100
AcDbPoint
 10
195.0835297075173
 20
169.3733480289677
 30
0.0
  0
ENDBLK
  5
DD2
330
DC5
100
AcDbEntity
  8
0
100
AcDbBlockEnd
  0
BLOCK
  5
DDF
330
DD3
100
AcDbEntity
  8
0
100
AcDbBlockBegin
  2
*D55
 70
     1
 10
0.0
 20
0.0
 30
0.0
  3
*D55
  1

  0
LINE
  5
E0C
330
DD3
100
AcDbEntity
  8
标注
370
    -2
100
AcDbLine
 10
225.0254419119534
 20
166.4050331573734
 30
0.0
 11
234.4800711352912
 21
166.4050331573734
 31
0.0
  0
LINE
  5
E0D
330
DD3
100
AcDbEntity
  8
标注
370
    -2
100
AcDbLine
 10
227.9781978174652
 20
167.4050331573733
 30
0.0
 11
234.4800711352912
 21
167.4050331573733
 31
0.0
  0
LINE
  5
E0E
330
DD3
100
AcDbEntity
  8
标注
370
    -2
100
AcDbLine
 10
234.1600711352912
 20
165.7550331573734
 30
0.0
 11
234.1600711352912
 21
165.1050331573734
 31
0.0
  0
LINE
  5
E0F
330
DD3
100
AcDbEntity
  8
标注
370
    -2
100
AcDbLine
 10
234.1600711352912
 20
168.0550331573734
 30
0.0
 11
234.1600711352912
 21
168.7050331573733
 31
0.0
  0
LINE
  5
E10
330
DD3
100
AcDbEntity
  8
标注
370
    -2
100
AcDbLine
 10
234.1600711352912
 20
166.4050331573734
 30
0.0
 11
234.1600711352912
 21
167.4050331573733
 31
0.0
  0
SOLID
  5
E11
330
DD3
100
AcDbEntity
  8
标注
100
AcDbTrace
 10
234.0517378019579
 20
165.7550331573734
 30
0.0
 11
234.2684044686245
 21
165.7550331573734
 31
0.0
 12
234.1600711352912
 22
166.4050331573734
 32
0.0
 13
234.1600711352912
 23
166.4050331573734
 33
0.0
  0
SOLID
  5
E12
330
DD3
100
AcDbEntity
  8
标注
100
AcDbTrace
 10
234.0517378019579
 20
168.0550331573734
 30
0.0
 11
234.2684044686245
 21
168.0550331573734
 31
0.0
 12
234.1600711352912
 22
167.4050331573733
 32
0.0
 13
234.1600711352912
 23
167.4050331573733
 33
0.0
  0
MTEXT
  5
E13
330
DD3
100
AcDbEntity
  8
标注
100
AcDbMText
 10
234.1600711352912
 20
169.2300331573734
 30
0.0
 40
0.65
 41
0.0
 71
     5
 72
     1
  1
\A1;1"
 11
0.0000000000000001
 21
1.0
 31
0.0
 73
     1
 44
1.0
1001
ACAD
1000
MTEXTBEGIN
1070
    73
1070
     1
1070
    44
1040
1.0
1070
    74
1070
     0
1000
MTEXTEND
  0
POINT
  5
E14
330
DD3
100
AcDbEntity
  8
Defpoints
 62
     0
100
AcDbPoint
 10
224.1454419119534
 20
166.4050331573734
 30
0.0
  0
POINT
  5
E15
330
DD3
100
AcDbEntity
  8
Defpoints
 62
     0
100
AcDbPoint
 10
227.0981978174652
 20
167.4050331573733
 30
0.0
  0
POINT
  5
E16
330
DD3
100
AcDbEntity
  8
Defpoints
 62
     0
100
AcDbPoint
 10
234.1600711352912
 20
167.4050331573733
 30
0.0
  0
ENDBLK
  5
DE0
330
DD3
100
AcDbEntity
  8
0
100
AcDbBlockEnd
  0
BLOCK
  5
DE7
330
DE1
100
AcDbEntity
  8
0
100
AcDbBlockBegin
  2
*D56
 70
     1
 10
0.0
 20
0.0
 30
0.0
  3
*D56
  1

  0
LINE
  5
E9E
330
DE1
100
AcDbEntity
  8
标注
370
    -2
100
AcDbLine
 10
214.1791533828467
 20
151.7477262171713
 30
0.0
 11
214.5853429377056
 21
151.2402717408648
 31
0.0
  0
MTEXT
  5
E9F
330
DE1
100
AcDbEntity
  8
标注
100
AcDbMText
 10
212.7679050576318
 20
153.5108052310055
 30
0.0
 40
0.65
 41
0.0
 71
     5
 72
     1
  1
\A1;R3 7/8"
 11
0.6249070074752209
 21
-0.7806991943177374
 31
0.0
 73
     1
 44
1.0
1001
ACAD
1000
MTEXTBEGIN
1070
    73
1070
     1
1070
    44
1040
1.0
1070
    74
1070
     0
1000
MTEXTEND
  0
SOLID
  5
EA0
330
DE1
100
AcDbEntity
  8
标注
100
AcDbTrace
 10
214.6699186837567
 20
151.3079700000079
 30
0.0
 11
214.5007671916545
 21
151.1725734817216
 31
0.0
 12
214.9915324925645
 22
150.7328172645582
 32
0.0
 13
214.9915324925645
 23
150.7328172645582
 33
0.0
  0
POINT
  5
EA1
330
DE1
100
AcDbEntity
  8
Defpoints
 62
     0
100
AcDbPoint
 10
214.9915324925645
 20
150.7328172645582
 30
0.0
  0
POINT
  5
EA2
330
DE1
100
AcDbEntity
  8
Defpoints
 62
     0
100
AcDbPoint
 10
212.5312686836069
 20
153.8064361398248
 30
0.0
  0
ENDBLK
  5
DE8
330
DE1
100
AcDbEntity
  8
0
100
AcDbBlockEnd
  0
BLOCK
  5
DEF
330
DE9
100
AcDbEntity
  8
0
100
AcDbBlockBegin
  2
*D57
 70
     1
 10
0.0
 20
0.0
 30
0.0
  3
*D57
  1

  0
LINE
  5
EA3
330
DE9
100
AcDbEntity
  8
标注
370
    -2
100
AcDbLine
 10
219.7515539253432
 20
152.0408574735664
 30
0.0
 11
219.2697444261487
 21
151.6045552772781
 31
0.0
  0
MTEXT
  5
EA4
330
DE9
100
AcDbEntity
  8
标注
100
AcDbMText
 10
221.3452314996018
 20
153.4840108920584
 30
0.0
 40
0.65
 41
0.0
 71
     5
 72
     1
  1
\A1;R3 1/2"
 11
0.7412453833760953
 21
0.6712341481358242
 31
0.0
 73
     1
 44
1.0
1001
ACAD
1000
MTEXTBEGIN
1070
    73
1070
     1
1070
    44
1040
1.0
1070
    74
1070
     0
1000
MTEXTEND
  0
SOLID
  5
EA5
330
DE9
100
AcDbEntity
  8
标注
100
AcDbTrace
 10
219.197027393434
 20
151.684856860477
 30
0.0
 11
219.3424614588634
 21
151.524253694079
 31
0.0
 12
218.7879349269543
 22
151.1682530809898
 32
0.0
 13
218.7879349269543
 23
151.1682530809898
 33
0.0
  0
POINT
  5
EA6
330
DE9
100
AcDbEntity
  8
Defpoints
 62
     0
100
AcDbPoint
 10
218.7879349269543
 20
151.1682530809898
 30
0.0
  0
POINT
  5
EA7
330
DE9
100
AcDbEntity
  8
Defpoints
 62
     0
100
AcDbPoint
 10
221.4143949467908
 20
153.5466417948568
 30
0.0
  0
ENDBLK
  5
DF0
330
DE9
100
AcDbEntity
  8
0
100
AcDbBlockEnd
  0
BLOCK
  5
DF7
330
DF1
100
AcDbEntity
  8
0
100
AcDbBlockBegin
  2
*D58
 70
     1
 10
0.0
 20
0.0
 30
0.0
  3
*D58
  1

  0
LINE
  5
E8E
330
DF1
100
AcDbEntity
  8
标注
370
    -2
100
AcDbLine
 10
214.5466035676492
 20
164.2172380468722
 30
0.0
 11
215.1157733497846
 21
164.5311580352515
 31
0.0
  0
MTEXT
  5
E8F
330
DF1
100
AcDbEntity
  8
标注
100
AcDbMText
 10
212.6639650575093
 20
163.1788873160794
 30
0.0
 40
0.65
 41
0.0
 71
     5
 72
     1
  1
\A1;R6 1/4"
 11
0.8756458186697399
 21
0.4829538282757488
 31
0.0
 73
     1
 44
1.0
1001
ACAD
1000
MTEXTBEGIN
1070
    73
1070
     1
1070
    44
1040
1.0
1070
    74
1070
     0
1000
MTEXTEND
  0
SOLID
  5
E90
330
DF1
100
AcDbEntity
  8
标注
100
AcDbTrace
 10
215.0634533517214
 20
164.6260196656074
 30
0.0
 11
215.1680933478478
 21
164.4362964048956
 31
0.0
 12
215.6849431319199
 22
164.8450780236307
 32
0.0
 13
215.6849431319199
 23
164.8450780236307
 33
0.0
  0
POINT
  5
E91
330
DF1
100
AcDbEntity
  8
Defpoints
 62
     0
100
AcDbPoint
 10
215.6849431319199
 20
164.8450780236307
 30
0.0
  0
POINT
  5
E92
330
DF1
100
AcDbEntity
  8
Defpoints
 62
     0
100
AcDbPoint
 10
210.1690639591975
 20
161.8028491840987
 30
0.0
  0
ENDBLK
  5
DF8
330
DF1
100
AcDbEntity
  8
0
100
AcDbBlockEnd
  0
BLOCK
  5
DFF
330
DF9
100
AcDbEntity
  8
0
100
AcDbBlockBegin
  2
*D59
 70
     1
 10
0.0
 20
0.0
 30
0.0
  3
*D59
  1

  0
LINE
  5
EBD
330
DF9
100
AcDbEntity
  8
标注
370
    -2
100
AcDbLine
 10
211.2172859556378
 20
166.6909323718559
 30
0.0
 11
211.3535762782183
 21
167.3264832730204
 31
0.0
  0
MTEXT
  5
EBE
330
DF9
100
AcDbEntity
  8
标注
100
AcDbMText
 10
210.7210493964985
 20
164.3768752445393
 30
0.0
 40
0.65
 41
0.0
 71
     5
 72
     1
  1
\A1;R18 1/2"
 11
0.2096774193546185
 21
0.9777706171760264
 31
0.0
 73
     1
 44
1.0
1001
ACAD
1000
MTEXTBEGIN
1070
    73
1070
     1
1070
    44
1040
1.0
1070
    74
1070
     0
1000
MTEXTEND
  0
SOLID
  5
EBF
330
DF9
100
AcDbEntity
  8
标注
100
AcDbTrace
 10
211.2476511280243
 20
167.3491983267838
 30
0.0
 11
211.4595014284124
 21
167.303768219257
 31
0.0
 12
211.4898666007988
 22
167.9620341741848
 32
0.0
 13
211.4898666007988
 23
167.9620341741848
 33
0.0
  0
POINT
  5
EC0
330
DF9
100
AcDbEntity
  8
Defpoints
 62
     0
100
AcDbPoint
 10
211.4898666007988
 20
167.9620341741848
 30
0.0
  0
POINT
  5
EC1
330
DF9
100
AcDbEntity
  8
Defpoints
 62
     0
100
AcDbPoint
 10
207.6100088410873
 20
149.8694282658091
 30
0.0
  0
ENDBLK
  5
E00
330
DF9
100
AcDbEntity
  8
0
100
AcDbBlockEnd
  0
BLOCK
  5
E23
330
E17
100
AcDbEntity
  8
0
100
AcDbBlockBegin
  2
*D60
 70
     1
 10
0.0
 20
0.0
 30
0.0
  3
*D60
  1

  0
LINE
  5
E93
330
E17
100
AcDbEntity
  8
标注
370
    -2
100
AcDbLine
 10
217.6493789198275
 20
157.2573166219402
 30
0.0
 11
217.6493789198275
 21
157.4846426619618
 31
0.0
  0
LINE
  5
E94
330
E17
100
AcDbEntity
  8
标注
370
    -2
100
AcDbLine
 10
216.4682765576227
 20
157.2573166219402
 30
0.0
 11
216.4682765576227
 21
157.4846426619618
 31
0.0
  0
LINE
  5
E95
330
E17
100
AcDbEntity
  8
标注
370
    -2
100
AcDbLine
 10
218.2993789198275
 20
157.8046426619617
 30
0.0
 11
218.9493789198275
 21
157.8046426619617
 31
0.0
  0
LINE
  5
E96
330
E17
100
AcDbEntity
  8
标注
370
    -2
100
AcDbLine
 10
215.8182765576227
 20
157.8046426619617
 30
0.0
 11
215.1682765576227
 21
157.8046426619617
 31
0.0
  0
LINE
  5
E97
330
E17
100
AcDbEntity
  8
标注
370
    -2
100
AcDbLine
 10
217.6493789198275
 20
157.8046426619617
 30
0.0
 11
216.4682765576227
 21
157.8046426619617
 31
0.0
  0
SOLID
  5
E98
330
E17
100
AcDbEntity
  8
标注
100
AcDbTrace
 10
218.2993789198275
 20
157.9129759952951
 30
0.0
 11
218.2993789198275
 21
157.6963093286284
 31
0.0
 12
217.6493789198275
 22
157.8046426619617
 32
0.0
 13
217.6493789198275
 23
157.8046426619617
 33
0.0
  0
SOLID
  5
E99
330
E17
100
AcDbEntity
  8
标注
100
AcDbTrace
 10
215.8182765576227
 20
157.9129759952951
 30
0.0
 11
215.8182765576227
 21
157.6963093286284
 31
0.0
 12
216.4682765576227
 22
157.8046426619617
 32
0.0
 13
216.4682765576227
 23
157.8046426619617
 33
0.0
  0
MTEXT
  5
E9A
330
E17
100
AcDbEntity
  8
标注
100
AcDbMText
 10
213.4516098909561
 20
157.8046426619617
 30
0.0
 40
0.65
 41
0.0
 71
     5
 72
     1
  1
\A1;1 1/8"
 73
     1
 44
1.0
1001
ACAD
1000
MTEXTBEGIN
1070
    73
1070
     1
1070
    44
1040
1.0
1070
    74
1070
     0
1000
MTEXTEND
  0
POINT
  5
E9B
330
E17
100
AcDbEntity
  8
Defpoints
 62
     0
100
AcDbPoint
 10
217.6493789198275
 20
158.1373166219402
 30
0.0
  0
POINT
  5
E9C
330
E17
100
AcDbEntity
  8
Defpoints
 62
     0
100
AcDbPoint
 10
216.4682765576227
 20
158.1373166219402
 30
0.0
  0
POINT
  5
E9D
330
E17
100
AcDbEntity
  8
Defpoints
 62
     0
100
AcDbPoint
 10
216.4682765576227
 20
157.8046426619617
 30
0.0
  0
ENDBLK
  5
E24
330
E17
100
AcDbEntity
  8
0
100
AcDbBlockEnd
  0
BLOCK
  5
E31
330
E25
100
AcDbEntity
  8
0
100
AcDbBlockBegin
  2
*D61
 70
     1
 10
0.0
 20
0.0
 30
0.0
  3
*D61
  1

  0
LINE
  5
EB2
330
E25
100
AcDbEntity
  8
标注
370
    -2
100
AcDbLine
 10
230.6415049040794
 20
157.2573166219402
 30
0.0
 11
230.6415049040794
 21
145.9539864153676
 31
0.0
  0
LINE
  5
EB3
330
E25
100
AcDbEntity
  8
标注
370
    -2
100
AcDbLine
 10
231.6415049040793
 20
152.5327353524233
 30
0.0
 11
231.6415049040793
 21
145.9539864153676
 31
0.0
  0
LINE
  5
EB4
330
E25
100
AcDbEntity
  8
标注
370
    -2
100
AcDbLine
 10
229.9915049040794
 20
146.2739864153677
 30
0.0
 11
229.3415049040794
 21
146.2739864153677
 31
0.0
  0
LINE
  5
EB5
330
E25
100
AcDbEntity
  8
标注
370
    -2
100
AcDbLine
 10
232.2915049040794
 20
146.2739864153677
 30
0.0
 11
232.9415049040793
 21
146.2739864153677
 31
0.0
  0
LINE
  5
EB6
330
E25
100
AcDbEntity
  8
标注
370
    -2
100
AcDbLine
 10
230.6415049040794
 20
146.2739864153677
 30
0.0
 11
231.6415049040793
 21
146.2739864153677
 31
0.0
  0
SOLID
  5
EB7
330
E25
100
AcDbEntity
  8
标注
100
AcDbTrace
 10
229.9915049040794
 20
146.382319748701
 30
0.0
 11
229.9915049040794
 21
146.1656530820344
 31
0.0
 12
230.6415049040794
 22
146.2739864153677
 32
0.0
 13
230.6415049040794
 23
146.2739864153677
 33
0.0
  0
SOLID
  5
EB8
330
E25
100
AcDbEntity
  8
标注
100
AcDbTrace
 10
232.2915049040794
 20
146.382319748701
 30
0.0
 11
232.2915049040794
 21
146.1656530820344
 31
0.0
 12
231.6415049040793
 22
146.2739864153677
 32
0.0
 13
231.6415049040793
 23
146.2739864153677
 33
0.0
  0
MTEXT
  5
EB9
330
E25
100
AcDbEntity
  8
标注
100
AcDbMText
 10
233.4665049040793
 20
146.2739864153677
 30
0.0
 40
0.65
 41
0.0
 71
     5
 72
     1
  1
\A1;1"
 73
     1
 44
1.0
1001
ACAD
1000
MTEXTBEGIN
1070
    73
1070
     1
1070
    44
1040
1.0
1070
    74
1070
     0
1000
MTEXTEND
  0
POINT
  5
EBA
330
E25
100
AcDbEntity
  8
Defpoints
 62
     0
100
AcDbPoint
 10
230.6415049040794
 20
158.1373166219402
 30
0.0
  0
POINT
  5
EBB
330
E25
100
AcDbEntity
  8
Defpoints
 62
     0
100
AcDbPoint
 10
231.6415049040793
 20
153.4127353524233
 30
0.0
  0
POINT
  5
EBC
330
E25
100
AcDbEntity
  8
Defpoints
 62
     0
100
AcDbPoint
 10
231.6415049040793
 20
146.2739864153677
 30
0.0
  0
ENDBLK
  5
E32
330
E25
100
AcDbEntity
  8
0
100
AcDbBlockEnd
  0
BLOCK
  5
E3E
330
E33
100
AcDbEntity
  8
0
100
AcDbBlockBegin
  2
*D62
 70
     1
 10
0.0
 20
0.0
 30
0.0
  3
*D62
  1

  0
LINE
  5
E34
330
E33
100
AcDbEntity
  8
标注
370
    -2
100
AcDbLine
 10
197.7517411245518
 20
152.9264361398249
 30
0.0
 11
197.7517411245518
 21
143.7305007353563
 31
0.0
  0
LINE
  5
E35
330
E33
100
AcDbEntity
  8
标注
370
    -2
100
AcDbLine
 10
231.6415049040794
 20
152.9264361398249
 30
0.0
 11
231.6415049040794
 21
143.7305007353563
 31
0.0
  0
LINE
  5
E36
330
E33
100
AcDbEntity
  8
标注
370
    -2
100
AcDbLine
 10
198.4017411245518
 20
144.0505007353563
 30
0.0
 11
212.4382896809823
 21
144.0505007353563
 31
0.0
  0
LINE
  5
E37
330
E33
100
AcDbEntity
  8
标注
370
    -2
100
AcDbLine
 10
230.9915049040794
 20
144.0505007353563
 30
0.0
 11
216.954956347649
 21
144.0505007353563
 31
0.0
  0
SOLID
  5
E38
330
E33
100
AcDbEntity
  8
标注
100
AcDbTrace
 10
198.4017411245518
 20
144.1588340686896
 30
0.0
 11
198.4017411245518
 21
143.942167402023
 31
0.0
 12
197.7517411245518
 22
144.0505007353563
 32
0.0
 13
197.7517411245518
 23
144.0505007353563
 33
0.0
  0
SOLID
  5
E39
330
E33
100
AcDbEntity
  8
标注
100
AcDbTrace
 10
230.9915049040794
 20
144.1588340686896
 30
0.0
 11
230.9915049040794
 21
143.942167402023
 31
0.0
 12
231.6415049040794
 22
144.0505007353563
 32
0.0
 13
231.6415049040794
 23
144.0505007353563
 33
0.0
  0
MTEXT
  5
E3A
330
E33
100
AcDbEntity
  8
标注
100
AcDbMText
 10
214.6966230143156
 20
144.0505007353563
 30
0.0
 40
0.65
 41
0.0
 71
     5
 72
     1
  1
\A1;33 7/8"
 73
     1
 44
1.0
1001
ACAD
1000
MTEXTBEGIN
1070
    73
1070
     1
1070
    44
1040
1.0
1070
    74
1070
     0
1000
MTEXTEND
  0
POINT
  5
E3B
330
E33
100
AcDbEntity
  8
Defpoints
 62
     0
100
AcDbPoint
 10
197.7517411245518
 20
153.8064361398249
 30
0.0
  0
POINT
  5
E3C
330
E33
100
AcDbEntity
  8
Defpoints
 62
     0
100
AcDbPoint
 10
231.6415049040794
 20
153.8064361398249
 30
0.0
  0
POINT
  5
E3D
330
E33
100
AcDbEntity
  8
Defpoints
 62
     0
100
AcDbPoint
 10
231.6415049040794
 20
144.0505007353563
 30
0.0
  0
ENDBLK
  5
E3F
330
E33
100
AcDbEntity
  8
0
100
AcDbBlockEnd
  0
BLOCK
  5
E4B
330
E40
100
AcDbEntity
  8
0
100
AcDbBlockBegin
  2
*D63
 70
     1
 10
0.0
 20
0.0
 30
0.0
  3
*D63
  1

  0
LINE
  5
E41
330
E40
100
AcDbEntity
  8
标注
370
    -2
100
AcDbLine
 10
198.7517411245518
 20
152.9264361398249
 30
0.0
 11
198.7517411245518
 21
145.9443921846904
 31
0.0
  0
LINE
  5
E42
330
E40
100
AcDbEntity
  8
标注
370
    -2
100
AcDbLine
 10
216.4682765576227
 20
152.9264361398249
 30
0.0
 11
216.4682765576227
 21
145.9443921846904
 31
0.0
  0
LINE
  5
E43
330
E40
100
AcDbEntity
  8
标注
370
    -2
100
AcDbLine
 10
199.4017411245518
 20
146.2643921846904
 30
0.0
 11
205.4600088410873
 21
146.2643921846904
 31
0.0
  0
LINE
  5
E44
330
E40
100
AcDbEntity
  8
标注
370
    -2
100
AcDbLine
 10
215.8182765576227
 20
146.2643921846904
 30
0.0
 11
209.7600088410873
 21
146.2643921846904
 31
0.0
  0
SOLID
  5
E45
330
E40
100
AcDbEntity
  8
标注
100
AcDbTrace
 10
199.4017411245518
 20
146.3727255180238
 30
0.0
 11
199.4017411245518
 21
146.1560588513571
 31
0.0
 12
198.7517411245518
 22
146.2643921846904
 32
0.0
 13
198.7517411245518
 23
146.2643921846904
 33
0.0
  0
SOLID
  5
E46
330
E40
100
AcDbEntity
  8
标注
100
AcDbTrace
 10
215.8182765576227
 20
146.3727255180238
 30
0.0
 11
215.8182765576227
 21
146.1560588513571
 31
0.0
 12
216.4682765576227
 22
146.2643921846904
 32
0.0
 13
216.4682765576227
 23
146.2643921846904
 33
0.0
  0
MTEXT
  5
E47
330
E40
100
AcDbEntity
  8
标注
100
AcDbMText
 10
207.6100088410873
 20
146.2643921846904
 30
0.0
 40
0.65
 41
0.0
 71
     5
 72
     1
  1
\A1;17 3/4"
 73
     1
 44
1.0
1001
ACAD
1000
MTEXTBEGIN
1070
    73
1070
     1
1070
    44
1040
1.0
1070
    74
1070
     0
1000
MTEXTEND
  0
POINT
  5
E48
330
E40
100
AcDbEntity
  8
Defpoints
 62
     0
100
AcDbPoint
 10
198.7517411245518
 20
153.8064361398248
 30
0.0
  0
POINT
  5
E49
330
E40
100
AcDbEntity
  8
Defpoints
 62
     0
100
AcDbPoint
 10
216.4682765576227
 20
153.8064361398249
 30
0.0
  0
POINT
  5
E4A
330
E40
100
AcDbEntity
  8
Defpoints
 62
     0
100
AcDbPoint
 10
216.4682765576227
 20
146.2643921846904
 30
0.0
  0
ENDBLK
  5
E4C
330
E40
100
AcDbEntity
  8
0
100
AcDbBlockEnd
  0
BLOCK
  5
E58
330
E4D
100
AcDbEntity
  8
0
100
AcDbBlockBegin
  2
*D64
 70
     1
 10
0.0
 20
0.0
 30
0.0
  3
*D64
  1

  0
LINE
  5
EA8
330
E4D
100
AcDbEntity
  8
标注
370
    -2
100
AcDbLine
 10
217.6493789198275
 20
157.2573166219403
 30
0.0
 11
217.6493789198275
 21
145.9539864153676
 31
0.0
  0
LINE
  5
EA9
330
E4D
100
AcDbEntity
  8
标注
370
    -2
100
AcDbLine
 10
230.6415049040794
 20
157.2573166219404
 30
0.0
 11
230.6415049040794
 21
145.9539864153676
 31
0.0
  0
LINE
  5
EAA
330
E4D
100
AcDbEntity
  8
标注
370
    -2
100
AcDbLine
 10
218.2993789198275
 20
146.2739864153677
 30
0.0
 11
223.2954419119535
 21
146.2739864153677
 31
0.0
  0
LINE
  5
EAB
330
E4D
100
AcDbEntity
  8
标注
370
    -2
100
AcDbLine
 10
229.9915049040794
 20
146.2739864153677
 30
0.0
 11
224.9954419119535
 21
146.2739864153677
 31
0.0
  0
SOLID
  5
EAC
330
E4D
100
AcDbEntity
  8
标注
100
AcDbTrace
 10
218.2993789198275
 20
146.382319748701
 30
0.0
 11
218.2993789198275
 21
146.1656530820344
 31
0.0
 12
217.6493789198275
 22
146.2739864153677
 32
0.0
 13
217.6493789198275
 23
146.2739864153677
 33
0.0
  0
SOLID
  5
EAD
330
E4D
100
AcDbEntity
  8
标注
100
AcDbTrace
 10
229.9915049040794
 20
146.382319748701
 30
0.0
 11
229.9915049040794
 21
146.1656530820344
 31
0.0
 12
230.6415049040794
 22
146.2739864153677
 32
0.0
 13
230.6415049040794
 23
146.2739864153677
 33
0.0
  0
MTEXT
  5
EAE
330
E4D
100
AcDbEntity
  8
标注
100
AcDbMText
 10
224.1454419119535
 20
146.2739864153677
 30
0.0
 40
0.65
 41
0.0
 71
     5
 72
     1
  1
\A1;13"
 73
     1
 44
1.0
1001
ACAD
1000
MTEXTBEGIN
1070
    73
1070
     1
1070
    44
1040
1.0
1070
    74
1070
     0
1000
MTEXTEND
  0
POINT
  5
EAF
330
E4D
100
AcDbEntity
  8
Defpoints
 62
     0
100
AcDbPoint
 10
217.6493789198275
 20
158.1373166219403
 30
0.0
  0
POINT
  5
EB0
330
E4D
100
AcDbEntity
  8
Defpoints
 62
     0
100
AcDbPoint
 10
230.6415049040794
 20
158.1373166219404
 30
0.0
  0
POINT
  5
EB1
330
E4D
100
AcDbEntity
  8
Defpoints
 62
     0
100
AcDbPoint
 10
230.6415049040794
 20
146.2739864153677
 30
0.0
  0
ENDBLK
  5
E59
330
E4D
100
AcDbEntity
  8
0
100
AcDbBlockEnd
  0
BLOCK
  5
E65
330
E5A
100
AcDbEntity
  8
0
100
AcDbBlockBegin
  2
*D65
 70
     1
 10
0.0
 20
0.0
 30
0.0
  3
*D65
  1

  0
LINE
  5
E5B
330
E5A
100
AcDbEntity
  8
标注
370
    -2
100
AcDbLine
 10
227.9781978174652
 20
167.4050331573733
 30
0.0
 11
236.6402112749468
 21
167.4050331573733
 31
0.0
  0
LINE
  5
E5C
330
E5A
100
AcDbEntity
  8
标注
370
    -2
100
AcDbLine
 10
227.9781978174652
 20
148.8694282658091
 30
0.0
 11
236.6402112749468
 21
148.8694282658091
 31
0.0
  0
LINE
  5
E5D
330
E5A
100
AcDbEntity
  8
标注
370
    -2
100
AcDbLine
 10
236.3202112749469
 20
166.7550331573733
 30
0.0
 11
236.3202112749469
 21
160.1788973782579
 31
0.0
  0
LINE
  5
E5E
330
E5A
100
AcDbEntity
  8
标注
370
    -2
100
AcDbLine
 10
236.3202112749469
 20
149.5194282658091
 30
0.0
 11
236.3202112749469
 21
156.0955640449246
 31
0.0
  0
SOLID
  5
E5F
330
E5A
100
AcDbEntity
  8
标注
100
AcDbTrace
 10
236.2118779416135
 20
166.7550331573733
 30
0.0
 11
236.4285446082802
 21
166.7550331573733
 31
0.0
 12
236.3202112749469
 22
167.4050331573733
 32
0.0
 13
236.3202112749469
 23
167.4050331573733
 33
0.0
  0
SOLID
  5
E60
330
E5A
100
AcDbEntity
  8
标注
100
AcDbTrace
 10
236.2118779416135
 20
149.5194282658091
 30
0.0
 11
236.4285446082802
 21
149.5194282658091
 31
0.0
 12
236.3202112749469
 22
148.8694282658091
 32
0.0
 13
236.3202112749469
 23
148.8694282658091
 33
0.0
  0
MTEXT
  5
E61
330
E5A
100
AcDbEntity
  8
标注
100
AcDbMText
 10
236.3202112749468
 20
158.1372307115913
 30
0.0
 40
0.65
 41
0.0
 71
     5
 72
     1
  1
\A1;18 1/2"
 11
0.0000000000000001
 21
1.0
 31
0.0
 73
     1
 44
1.0
1001
ACAD
1000
MTEXTBEGIN
1070
    73
1070
     1
1070
    44
1040
1.0
1070
    74
1070
     0
1000
MTEXTEND
  0
POINT
  5
E62
330
E5A
100
AcDbEntity
  8
Defpoints
 62
     0
100
AcDbPoint
 10
227.0981978174652
 20
167.4050331573733
 30
0.0
  0
POINT
  5
E63
330
E5A
100
AcDbEntity
  8
Defpoints
 62
     0
100
AcDbPoint
 10
227.0981978174652
 20
148.8694282658091
 30
0.0
  0
POINT
  5
E64
330
E5A
100
AcDbEntity
  8
Defpoints
 62
     0
100
AcDbPoint
 10
236.3202112749469
 20
148.8694282658091
 30
0.0
  0
ENDBLK
  5
E66
330
E5A
100
AcDbEntity
  8
0
100
AcDbBlockEnd
  0
BLOCK
  5
E72
330
E67
100
AcDbEntity
  8
0
100
AcDbBlockBegin
  2
*D66
 70
     1
 10
0.0
 20
0.0
 30
0.0
  3
*D66
  1

  0
LINE
  5
E68
330
E67
100
AcDbEntity
  8
标注
370
    -2
100
AcDbLine
 10
225.0254419119534
 20
166.4050331573734
 30
0.0
 11
234.4800711352912
 21
166.4050331573734
 31
0.0
  0
LINE
  5
E69
330
E67
100
AcDbEntity
  8
标注
370
    -2
100
AcDbLine
 10
225.0254419119534
 20
149.8696000865072
 30
0.0
 11
234.4800711352912
 21
149.8696000865072
 31
0.0
  0
LINE
  5
E6A
330
E67
100
AcDbEntity
  8
标注
370
    -2
100
AcDbLine
 10
234.1600711352912
 20
165.7550331573734
 30
0.0
 11
234.1600711352912
 21
160.1789832886069
 31
0.0
  0
LINE
  5
E6B
330
E67
100
AcDbEntity
  8
标注
370
    -2
100
AcDbLine
 10
234.1600711352912
 20
150.5196000865072
 30
0.0
 11
234.1600711352912
 21
156.0956499552736
 31
0.0
  0
SOLID
  5
E6C
330
E67
100
AcDbEntity
  8
标注
100
AcDbTrace
 10
234.0517378019579
 20
165.7550331573734
 30
0.0
 11
234.2684044686245
 21
165.7550331573734
 31
0.0
 12
234.1600711352912
 22
166.4050331573734
 32
0.0
 13
234.1600711352912
 23
166.4050331573734
 33
0.0
  0
SOLID
  5
E6D
330
E67
100
AcDbEntity
  8
标注
100
AcDbTrace
 10
234.0517378019579
 20
150.5196000865072
 30
0.0
 11
234.2684044686245
 21
150.5196000865072
 31
0.0
 12
234.1600711352912
 22
149.8696000865072
 32
0.0
 13
234.1600711352912
 23
149.8696000865072
 33
0.0
  0
MTEXT
  5
E6E
330
E67
100
AcDbEntity
  8
标注
100
AcDbMText
 10
234.1600711352912
 20
158.1373166219403
 30
0.0
 40
0.65
 41
0.0
 71
     5
 72
     1
  1
\A1;16 1/2"
 11
0.0000000000000001
 21
1.0
 31
0.0
 73
     1
 44
1.0
1001
ACAD
1000
MTEXTBEGIN
1070
    73
1070
     1
1070
    44
1040
1.0
1070
    74
1070
     0
1000
MTEXTEND
  0
POINT
  5
E6F
330
E67
100
AcDbEntity
  8
Defpoints
 62
     0
100
AcDbPoint
 10
224.1454419119534
 20
166.4050331573734
 30
0.0
  0
POINT
  5
E70
330
E67
100
AcDbEntity
  8
Defpoints
 62
     0
100
AcDbPoint
 10
224.1454419119534
 20
149.8696000865072
 30
0.0
  0
POINT
  5
E71
330
E67
100
AcDbEntity
  8
Defpoints
 62
     0
100
AcDbPoint
 10
234.1600711352912
 20
149.8696000865072
 30
0.0
  0
ENDBLK
  5
E73
330
E67
100
AcDbEntity
  8
0
100
AcDbBlockEnd
  0
BLOCK
  5
E7F
330
E74
100
AcDbEntity
  8
0
100
AcDbBlockBegin
  2
*D67
 70
     1
 10
0.0
 20
0.0
 30
0.0
  3
*D67
  1

  0
LINE
  5
E75
330
E74
100
AcDbEntity
  8
标注
370
    -2
100
AcDbLine
 10
204.1709537229771
 20
169.3733480289677
 30
0.0
 11
192.3925510733911
 21
169.3733480289677
 31
0.0
  0
LINE
  5
E76
330
E74
100
AcDbEntity
  8
标注
370
    -2
100
AcDbLine
 10
201.8087489985677
 20
148.8694282658091
 30
0.0
 11
192.3925510733911
 21
148.8694282658091
 31
0.0
  0
LINE
  5
E77
330
E74
100
AcDbEntity
  8
标注
370
    -2
100
AcDbLine
 10
192.712551073391
 20
168.7233480289677
 30
0.0
 11
192.712551073391
 21
161.2172214807217
 31
0.0
  0
LINE
  5
E78
330
E74
100
AcDbEntity
  8
标注
370
    -2
100
AcDbLine
 10
192.712551073391
 20
149.5194282658091
 30
0.0
 11
192.712551073391
 21
157.0255548140551
 31
0.0
  0
SOLID
  5
E79
330
E74
100
AcDbEntity
  8
标注
100
AcDbTrace
 10
192.6042177400578
 20
168.7233480289677
 30
0.0
 11
192.8208844067244
 21
168.7233480289677
 31
0.0
 12
192.712551073391
 22
169.3733480289677
 32
0.0
 13
192.712551073391
 23
169.3733480289677
 33
0.0
  0
SOLID
  5
E7A
330
E74
100
AcDbEntity
  8
标注
100
AcDbTrace
 10
192.6042177400578
 20
149.5194282658091
 30
0.0
 11
192.8208844067244
 21
149.5194282658091
 31
0.0
 12
192.712551073391
 22
148.8694282658091
 32
0.0
 13
192.712551073391
 23
148.8694282658091
 33
0.0
  0
MTEXT
  5
E7B
330
E74
100
AcDbEntity
  8
标注
100
AcDbMText
 10
192.712551073391
 20
159.1213881473884
 30
0.0
 40
0.65
 41
0.0
 71
     5
 72
     1
  1
\A1;20 1/2"
 11
0.0000000000000001
 21
1.0
 31
0.0
 73
     1
 44
1.0
1001
ACAD
1000
MTEXTBEGIN
1070
    73
1070
     1
1070
    44
1040
1.0
1070
    74
1070
     0
1000
MTEXTEND
  0
POINT
  5
E7C
330
E74
100
AcDbEntity
  8
Defpoints
 62
     0
100
AcDbPoint
 10
205.0509537229771
 20
169.3733480289677
 30
0.0
  0
POINT
  5
E7D
330
E74
100
AcDbEntity
  8
Defpoints
 62
     0
100
AcDbPoint
 10
202.6887489985677
 20
148.8694282658091
 30
0.0
  0
POINT
  5
E7E
330
E74
100
AcDbEntity
  8
Defpoints
 62
     0
100
AcDbPoint
 10
192.712551073391
 20
148.8694282658091
 30
0.0
  0
ENDBLK
  5
E80
330
E74
100
AcDbEntity
  8
0
100
AcDbBlockEnd
  0
BLOCK
  5
E8C
330
E81
100
AcDbEntity
  8
0
100
AcDbBlockBegin
  2
*D68
 70
     1
 10
0.0
 20
0.0
 30
0.0
  3
*D68
  1

  0
LINE
  5
E82
330
E81
100
AcDbEntity
  8
标注
370
    -2
100
AcDbLine
 10
206.7300088410873
 20
168.373365273683
 30
0.0
 11
194.7635297075173
 21
168.373365273683
 31
0.0
  0
LINE
  5
E83
330
E81
100
AcDbEntity
  8
标注
370
    -2
100
AcDbLine
 10
201.8087489985677
 20
149.8694282658091
 30
0.0
 11
194.7635297075173
 21
149.8694282658091
 31
0.0
  0
LINE
  5
E84
330
E81
100
AcDbEntity
  8
标注
370
    -2
100
AcDbLine
 10
195.0835297075173
 20
167.7233652736831
 30
0.0
 11
195.0835297075173
 21
161.1630634364128
 31
0.0
  0
LINE
  5
E85
330
E81
100
AcDbEntity
  8
标注
370
    -2
100
AcDbLine
 10
195.0835297075173
 20
150.5194282658091
 30
0.0
 11
195.0835297075173
 21
157.0797301030794
 31
0.0
  0
SOLID
  5
E86
330
E81
100
AcDbEntity
  8
标注
100
AcDbTrace
 10
194.975196374184
 20
167.7233652736831
 30
0.0
 11
195.1918630408506
 21
167.7233652736831
 31
0.0
 12
195.0835297075173
 22
168.373365273683
 32
0.0
 13
195.0835297075173
 23
168.373365273683
 33
0.0
  0
SOLID
  5
E87
330
E81
100
AcDbEntity
  8
标注
100
AcDbTrace
 10
194.975196374184
 20
150.5194282658091
 30
0.0
 11
195.1918630408506
 21
150.5194282658091
 31
0.0
 12
195.0835297075173
 22
149.8694282658091
 32
0.0
 13
195.0835297075173
 23
149.8694282658091
 33
0.0
  0
MTEXT
  5
E88
330
E81
100
AcDbEntity
  8
标注
100
AcDbMText
 10
195.0835297075173
 20
159.1213967697462
 30
0.0
 40
0.65
 41
0.0
 71
     5
 72
     1
  1
\A1;18 1/2"
 11
0.0000000000000001
 21
1.0
 31
0.0
 73
     1
 44
1.0
1001
ACAD
1000
MTEXTBEGIN
1070
    73
1070
     1
1070
    44
1040
1.0
1070
    74
1070
     0
1000
MTEXTEND
  0
POINT
  5
E89
330
E81
100
AcDbEntity
  8
Defpoints
 62
     0
100
AcDbPoint
 10
207.6100088410873
 20
168.373365273683
 30
0.0
  0
POINT
  5
E8A
330
E81
100
AcDbEntity
  8
Defpoints
 62
     0
100
AcDbPoint
 10
202.6887489985677
 20
149.8694282658091
 30
0.0
  0
POINT
  5
E8B
330
E81
100
AcDbEntity
  8
Defpoints
 62
     0
100
AcDbPoint
 10
195.0835297075173
 20
149.8694282658091
 30
0.0
  0
ENDBLK
  5
E8D
330
E81
100
AcDbEntity
  8
0
100
AcDbBlockEnd
  0
BLOCK
  5
104B
330
103F
100
AcDbEntity
  8
0
100
AcDbBlockBegin
  2
*D69
 70
     1
 10
0.0
 20
0.0
 30
0.0
  3
*D69
  1

  0
LINE
  5
1097
330
103F
100
AcDbEntity
  8
标注
370
    -2
100
AcDbLine
 10
354.2360427862811
 20
206.4369952141638
 30
0.0
 11
344.7814135629433
 21
206.4369952141638
 31
0.0
  0
LINE
  5
1098
330
103F
100
AcDbEntity
  8
标注
370
    -2
100
AcDbLine
 10
351.2832868807692
 20
207.4369952141638
 30
0.0
 11
344.7814135629433
 21
207.4369952141638
 31
0.0
  0
LINE
  5
1099
330
103F
100
AcDbEntity
  8
标注
370
    -2
100
AcDbLine
 10
345.1014135629433
 20
205.7869952141639
 30
0.0
 11
345.1014135629433
 21
205.1369952141639
 31
0.0
  0
LINE
  5
109A
330
103F
100
AcDbEntity
  8
标注
370
    -2
100
AcDbLine
 10
345.1014135629433
 20
208.0869952141638
 30
0.0
 11
345.1014135629433
 21
208.7369952141638
 31
0.0
  0
LINE
  5
109B
330
103F
100
AcDbEntity
  8
标注
370
    -2
100
AcDbLine
 10
345.1014135629433
 20
206.4369952141638
 30
0.0
 11
345.1014135629433
 21
207.4369952141638
 31
0.0
  0
SOLID
  5
109C
330
103F
100
AcDbEntity
  8
标注
100
AcDbTrace
 10
344.9930802296099
 20
205.7869952141639
 30
0.0
 11
345.2097468962766
 21
205.7869952141639
 31
0.0
 12
345.1014135629433
 22
206.4369952141638
 32
0.0
 13
345.1014135629433
 23
206.4369952141638
 33
0.0
  0
SOLID
  5
109D
330
103F
100
AcDbEntity
  8
标注
100
AcDbTrace
 10
344.9930802296099
 20
208.0869952141638
 30
0.0
 11
345.2097468962766
 21
208.0869952141638
 31
0.0
 12
345.1014135629433
 22
207.4369952141638
 32
0.0
 13
345.1014135629433
 23
207.4369952141638
 33
0.0
  0
MTEXT
  5
109E
330
103F
100
AcDbEntity
  8
标注
100
AcDbMText
 10
345.1014135629432
 20
209.2619952141639
 30
0.0
 40
0.65
 41
0.0
 71
     5
 72
     1
  1
\A1;1"
 11
0.0000000000000001
 21
1.0
 31
0.0
 73
     1
 44
1.0
1001
ACAD
1000
MTEXTBEGIN
1070
    73
1070
     1
1070
    44
1040
1.0
1070
    74
1070
     0
1000
MTEXTEND
  0
POINT
  5
109F
330
103F
100
AcDbEntity
  8
Defpoints
 62
     0
100
AcDbPoint
 10
355.1160427862811
 20
206.4369952141638
 30
0.0
  0
POINT
  5
10A0
330
103F
100
AcDbEntity
  8
Defpoints
 62
     0
100
AcDbPoint
 10
352.1632868807694
 20
207.4369952141638
 30
0.0
  0
POINT
  5
10A1
330
103F
100
AcDbEntity
  8
Defpoints
 62
     0
100
AcDbPoint
 10
345.1014135629433
 20
207.4369952141638
 30
0.0
  0
ENDBLK
  5
104C
330
103F
100
AcDbEntity
  8
0
100
AcDbBlockEnd
  0
BLOCK
  5
1059
330
104D
100
AcDbEntity
  8
0
100
AcDbBlockBegin
  2
*D70
 70
     1
 10
0.0
 20
0.0
 30
0.0
  3
*D70
  1

  0
LINE
  5
10A2
330
104D
100
AcDbEntity
  8
标注
370
    -2
100
AcDbLine
 10
372.5314758571471
 20
208.4053273304736
 30
0.0
 11
384.4979549907172
 21
208.4053273304736
 31
0.0
  0
LINE
  5
10A3
330
104D
100
AcDbEntity
  8
标注
370
    -2
100
AcDbLine
 10
375.0905309752574
 20
209.4053100857582
 30
0.0
 11
384.4979549907172
 21
209.4053100857582
 31
0.0
  0
LINE
  5
10A4
330
104D
100
AcDbEntity
  8
标注
370
    -2
100
AcDbLine
 10
384.1779549907172
 20
207.7553273304736
 30
0.0
 11
384.1779549907172
 21
207.1053273304736
 31
0.0
  0
LINE
  5
10A5
330
104D
100
AcDbEntity
  8
标注
370
    -2
100
AcDbLine
 10
384.1779549907172
 20
210.0553100857581
 30
0.0
 11
384.1779549907172
 21
210.7053100857581
 31
0.0
  0
LINE
  5
10A6
330
104D
100
AcDbEntity
  8
标注
370
    -2
100
AcDbLine
 10
384.1779549907172
 20
208.4053273304736
 30
0.0
 11
384.1779549907172
 21
209.4053100857582
 31
0.0
  0
SOLID
  5
10A7
330
104D
100
AcDbEntity
  8
标注
100
AcDbTrace
 10
384.0696216573838
 20
207.7553273304736
 30
0.0
 11
384.2862883240505
 21
207.7553273304736
 31
0.0
 12
384.1779549907172
 22
208.4053273304736
 32
0.0
 13
384.1779549907172
 23
208.4053273304736
 33
0.0
  0
SOLID
  5
10A8
330
104D
100
AcDbEntity
  8
标注
100
AcDbTrace
 10
384.0696216573838
 20
210.0553100857581
 30
0.0
 11
384.2862883240505
 21
210.0553100857581
 31
0.0
 12
384.1779549907172
 22
209.4053100857582
 32
0.0
 13
384.1779549907172
 23
209.4053100857582
 33
0.0
  0
MTEXT
  5
10A9
330
104D
100
AcDbEntity
  8
标注
100
AcDbMText
 10
384.1779549907172
 20
211.2303100857582
 30
0.0
 40
0.65
 41
0.0
 71
     5
 72
     1
  1
\A1;1"
 11
0.0000000000000001
 21
1.0
 31
0.0
 73
     1
 44
1.0
1001
ACAD
1000
MTEXTBEGIN
1070
    73
1070
     1
1070
    44
1040
1.0
1070
    74
1070
     0
1000
MTEXTEND
  0
POINT
  5
10AA
330
104D
100
AcDbEntity
  8
Defpoints
 62
     0
100
AcDbPoint
 10
371.6514758571471
 20
208.4053273304736
 30
0.0
  0
POINT
  5
10AB
330
104D
100
AcDbEntity
  8
Defpoints
 62
     0
100
AcDbPoint
 10
374.2105309752573
 20
209.4053100857582
 30
0.0
  0
POINT
  5
10AC
330
104D
100
AcDbEntity
  8
Defpoints
 62
     0
100
AcDbPoint
 10
384.1779549907172
 20
209.4053100857582
 30
0.0
  0
ENDBLK
  5
105A
330
104D
100
AcDbEntity
  8
0
100
AcDbBlockEnd
  0
BLOCK
  5
1061
330
105B
100
AcDbEntity
  8
0
100
AcDbBlockBegin
  2
*D71
 70
     1
 10
0.0
 20
0.0
 30
0.0
  3
*D71
  1

  0
LINE
  5
105C
330
105B
100
AcDbEntity
  8
标注
370
    -2
100
AcDbLine
 10
359.5099307728913
 20
192.0728195303568
 30
0.0
 11
359.9917402720858
 21
191.6365173340684
 31
0.0
  0
MTEXT
  5
105D
330
105B
100
AcDbEntity
  8
标注
100
AcDbMText
 10
357.9162531986327
 20
193.5159729488488
 30
0.0
 40
0.65
 41
0.0
 71
     5
 72
     1
  1
\A1;R3 1/2"
 11
0.7412453833760986
 21
-0.6712341481358206
 31
0.0
 73
     1
 44
1.0
1001
ACAD
1000
MTEXTBEGIN
1070
    73
1070
     1
1070
    44
1040
1.0
1070
    74
1070
     0
1000
MTEXTEND
  0
SOLID
  5
105E
330
105B
100
AcDbEntity
  8
标注
100
AcDbTrace
 10
360.0644573048003
 20
191.7168189172676
 30
0.0
 11
359.919023239371
 21
191.5562157508694
 31
0.0
 12
360.4735497712802
 22
191.2002151377802
 32
0.0
 13
360.4735497712802
 23
191.2002151377802
 33
0.0
  0
POINT
  5
105F
330
105B
100
AcDbEntity
  8
Defpoints
 62
     0
100
AcDbPoint
 10
360.4735497712802
 20
191.2002151377802
 30
0.0
  0
POINT
  5
1060
330
105B
100
AcDbEntity
  8
Defpoints
 62
     0
100
AcDbPoint
 10
357.8470897514437
 20
193.5786038516472
 30
0.0
  0
ENDBLK
  5
1062
330
105B
100
AcDbEntity
  8
0
100
AcDbBlockEnd
  0
BLOCK
  5
1069
330
1063
100
AcDbEntity
  8
0
100
AcDbBlockBegin
  2
*D72
 70
     1
 10
0.0
 20
0.0
 30
0.0
  3
*D72
  1

  0
LINE
  5
1064
330
1063
100
AcDbEntity
  8
标注
370
    -2
100
AcDbLine
 10
365.0823313153876
 20
191.7796882739617
 30
0.0
 11
364.6761417605287
 21
191.2722337976551
 31
0.0
  0
MTEXT
  5
1065
330
1063
100
AcDbEntity
  8
标注
100
AcDbMText
 10
366.4935796406025
 20
193.542767287796
 30
0.0
 40
0.65
 41
0.0
 71
     5
 72
     1
  1
\A1;R3 7/8"
 11
0.6249070074752222
 21
0.7806991943177363
 31
0.0
 73
     1
 44
1.0
1001
ACAD
1000
MTEXTBEGIN
1070
    73
1070
     1
1070
    44
1040
1.0
1070
    74
1070
     0
1000
MTEXTEND
  0
SOLID
  5
1066
330
1063
100
AcDbEntity
  8
标注
100
AcDbTrace
 10
364.5915660144777
 20
191.3399320567982
 30
0.0
 11
364.7607175065798
 21
191.204535538512
 31
0.0
 12
364.2699522056698
 22
190.7647793213486
 32
0.0
 13
364.2699522056698
 23
190.7647793213486
 33
0.0
  0
POINT
  5
1067
330
1063
100
AcDbEntity
  8
Defpoints
 62
     0
100
AcDbPoint
 10
364.2699522056698
 20
190.7647793213486
 30
0.0
  0
POINT
  5
1068
330
1063
100
AcDbEntity
  8
Defpoints
 62
     0
100
AcDbPoint
 10
366.7302160146274
 20
193.8383981966153
 30
0.0
  0
ENDBLK
  5
106A
330
1063
100
AcDbEntity
  8
0
100
AcDbBlockEnd
  0
BLOCK
  5
1071
330
106B
100
AcDbEntity
  8
0
100
AcDbBlockBegin
  2
*D73
 70
     1
 10
0.0
 20
0.0
 30
0.0
  3
*D73
  1

  0
LINE
  5
1208
330
106B
100
AcDbEntity
  8
标注
370
    -2
100
AcDbLine
 10
378.3576102928468
 20
220.3569917512805
 30
0.0
 11
378.8349315473268
 21
219.915783841082
 31
0.0
  0
MTEXT
  5
1209
330
106B
100
AcDbEntity
  8
标注
100
AcDbMText
 10
377.6538674176519
 20
221.0074905932397
 30
0.0
 40
0.65
 41
0.0
 71
     5
 72
     1
  1
\A1;R2"
 11
0.7343403915076938
 21
-0.6787814003052288
 31
0.0
 73
     1
 44
1.0
1001
ACAD
1000
MTEXTBEGIN
1070
    73
1070
     1
1070
    44
1040
1.0
1070
    74
1070
     0
1000
MTEXTEND
  0
SOLID
  5
120A
330
106B
100
AcDbEntity
  8
标注
100
AcDbTrace
 10
378.9084661990266
 20
219.9953373834954
 30
0.0
 11
378.7613968956271
 21
219.8362302986687
 31
0.0
 12
379.3122528018068
 22
219.4745759308836
 32
0.0
 13
379.3122528018068
 23
219.4745759308836
 33
0.0
  0
POINT
  5
120B
330
106B
100
AcDbEntity
  8
Defpoints
 62
     0
100
AcDbPoint
 10
379.3122528018068
 20
219.4745759308836
 30
0.0
  0
POINT
  5
120C
330
106B
100
AcDbEntity
  8
Defpoints
 62
     0
100
AcDbPoint
 10
377.8435720187915
 20
220.832138731494
 30
0.0
  0
ENDBLK
  5
1072
330
106B
100
AcDbEntity
  8
0
100
AcDbBlockEnd
  0
BLOCK
  5
1079
330
1073
100
AcDbEntity
  8
0
100
AcDbBlockBegin
  2
*D74
 70
     1
 10
0.0
 20
0.0
 30
0.0
  3
*D74
  1

  0
LINE
  5
11EB
330
1073
100
AcDbEntity
  8
标注
370
    -2
100
AcDbLine
 10
359.8625792817918
 20
223.0711644544409
 30
0.0
 11
360.3390314168395
 21
222.629018140413
 31
0.0
  0
MTEXT
  5
11EC
330
1073
100
AcDbEntity
  8
标注
100
AcDbMText
 10
359.1601178006317
 20
223.7230468405078
 30
0.0
 40
0.65
 41
0.0
 71
     5
 72
     1
  1
\A1;R2"
 11
0.7330032846887333
 21
-0.6802250985045523
 31
0.0
 73
     1
 44
1.0
1001
ACAD
1000
MTEXTBEGIN
1070
    73
1070
     1
1070
    44
1040
1.0
1070
    74
1070
     0
1000
MTEXTEND
  0
SOLID
  5
11ED
330
1073
100
AcDbEntity
  8
标注
100
AcDbTrace
 10
360.4127224691775
 20
222.7084268295875
 30
0.0
 11
360.2653403645015
 21
222.5496094512383
 31
0.0
 12
360.8154835518872
 22
222.1868718263849
 32
0.0
 13
360.8154835518872
 23
222.1868718263849
 33
0.0
  0
POINT
  5
11EE
330
1073
100
AcDbEntity
  8
Defpoints
 62
     0
100
AcDbPoint
 10
360.8154835518872
 20
222.1868718263849
 30
0.0
  0
POINT
  5
11EF
330
1073
100
AcDbEntity
  8
Defpoints
 62
     0
100
AcDbPoint
 10
359.3494769825096
 20
223.5473220233942
 30
0.0
  0
ENDBLK
  5
107A
330
1073
100
AcDbEntity
  8
0
100
AcDbBlockEnd
  0
BLOCK
  5
1087
330
107B
100
AcDbEntity
  8
0
100
AcDbBlockBegin
  2
*D75
 70
     1
 10
0.0
 20
0.0
 30
0.0
  3
*D75
  1

  0
LINE
  5
107C
330
107B
100
AcDbEntity
  8
标注
370
    -2
100
AcDbLine
 10
348.619979794155
 20
197.2892786787307
 30
0.0
 11
348.619979794155
 21
185.9859484721582
 31
0.0
  0
LINE
  5
107D
330
107B
100
AcDbEntity
  8
标注
370
    -2
100
AcDbLine
 10
347.6199797941551
 20
192.5646974092138
 30
0.0
 11
347.6199797941551
 21
185.9859484721582
 31
0.0
  0
LINE
  5
107E
330
107B
100
AcDbEntity
  8
标注
370
    -2
100
AcDbLine
 10
349.269979794155
 20
186.3059484721581
 30
0.0
 11
349.9199797941551
 21
186.3059484721581
 31
0.0
  0
LINE
  5
107F
330
107B
100
AcDbEntity
  8
标注
370
    -2
100
AcDbLine
 10
346.9699797941551
 20
186.3059484721581
 30
0.0
 11
346.3199797941551
 21
186.3059484721581
 31
0.0
  0
LINE
  5
1080
330
107B
100
AcDbEntity
  8
标注
370
    -2
100
AcDbLine
 10
348.619979794155
 20
186.3059484721581
 30
0.0
 11
347.6199797941551
 21
186.3059484721581
 31
0.0
  0
SOLID
  5
1081
330
107B
100
AcDbEntity
  8
标注
100
AcDbTrace
 10
349.269979794155
 20
186.4142818054915
 30
0.0
 11
349.269979794155
 21
186.1976151388248
 31
0.0
 12
348.619979794155
 22
186.3059484721581
 32
0.0
 13
348.619979794155
 23
186.3059484721581
 33
0.0
  0
SOLID
  5
1082
330
107B
100
AcDbEntity
  8
标注
100
AcDbTrace
 10
346.9699797941551
 20
186.4142818054915
 30
0.0
 11
346.9699797941551
 21
186.1976151388248
 31
0.0
 12
347.6199797941551
 22
186.3059484721581
 32
0.0
 13
347.6199797941551
 23
186.3059484721581
 33
0.0
  0
MTEXT
  5
1083
330
107B
100
AcDbEntity
  8
标注
100
AcDbMText
 10
345.7949797941551
 20
186.3059484721581
 30
0.0
 40
0.65
 41
0.0
 71
     5
 72
     1
  1
\A1;1"
 73
     1
 44
1.0
1001
ACAD
1000
MTEXTBEGIN
1070
    73
1070
     1
1070
    44
1040
1.0
1070
    74
1070
     0
1000
MTEXTEND
  0
POINT
  5
1084
330
107B
100
AcDbEntity
  8
Defpoints
 62
     0
100
AcDbPoint
 10
348.619979794155
 20
198.1692786787307
 30
0.0
  0
POINT
  5
1085
330
107B
100
AcDbEntity
  8
Defpoints
 62
     0
100
AcDbPoint
 10
347.6199797941551
 20
193.4446974092138
 30
0.0
  0
POINT
  5
1086
330
107B
100
AcDbEntity
  8
Defpoints
 62
     0
100
AcDbPoint
 10
347.6199797941551
 20
186.3059484721581
 30
0.0
  0
ENDBLK
  5
1088
330
107B
100
AcDbEntity
  8
0
100
AcDbBlockEnd
  0
BLOCK
  5
1095
330
1089
100
AcDbEntity
  8
0
100
AcDbBlockBegin
  2
*D76
 70
     1
 10
0.0
 20
0.0
 30
0.0
  3
*D76
  1

  0
LINE
  5
108A
330
1089
100
AcDbEntity
  8
标注
370
    -2
100
AcDbLine
 10
361.612105778407
 20
197.2892786787307
 30
0.0
 11
361.612105778407
 21
197.5166047187522
 31
0.0
  0
LINE
  5
108B
330
1089
100
AcDbEntity
  8
标注
370
    -2
100
AcDbLine
 10
362.7932081406117
 20
197.2892786787307
 30
0.0
 11
362.7932081406117
 21
197.5166047187522
 31
0.0
  0
LINE
  5
108C
330
1089
100
AcDbEntity
  8
标注
370
    -2
100
AcDbLine
 10
360.962105778407
 20
197.8366047187521
 30
0.0
 11
360.312105778407
 21
197.8366047187521
 31
0.0
  0
LINE
  5
108D
330
1089
100
AcDbEntity
  8
标注
370
    -2
100
AcDbLine
 10
363.4432081406117
 20
197.8366047187521
 30
0.0
 11
364.0932081406118
 21
197.8366047187521
 31
0.0
  0
LINE
  5
108E
330
1089
100
AcDbEntity
  8
标注
370
    -2
100
AcDbLine
 10
361.612105778407
 20
197.8366047187521
 30
0.0
 11
362.7932081406117
 21
197.8366047187521
 31
0.0
  0
SOLID
  5
108F
330
1089
100
AcDbEntity
  8
标注
100
AcDbTrace
 10
360.962105778407
 20
197.9449380520854
 30
0.0
 11
360.962105778407
 21
197.7282713854189
 31
0.0
 12
361.612105778407
 22
197.8366047187521
 32
0.0
 13
361.612105778407
 23
197.8366047187521
 33
0.0
  0
SOLID
  5
1090
330
1089
100
AcDbEntity
  8
标注
100
AcDbTrace
 10
363.4432081406117
 20
197.9449380520854
 30
0.0
 11
363.4432081406117
 21
197.7282713854189
 31
0.0
 12
362.7932081406117
 22
197.8366047187521
 32
0.0
 13
362.7932081406117
 23
197.8366047187521
 33
0.0
  0
MTEXT
  5
1091
330
1089
100
AcDbEntity
  8
标注
100
AcDbMText
 10
365.8098748072784
 20
197.8366047187521
 30
0.0
 40
0.65
 41
0.0
 71
     5
 72
     1
  1
\A1;1 1/8"
 73
     1
 44
1.0
1001
ACAD
1000
MTEXTBEGIN
1070
    73
1070
     1
1070
    44
1040
1.0
1070
    74
1070
     0
1000
MTEXTEND
  0
POINT
  5
1092
330
1089
100
AcDbEntity
  8
Defpoints
 62
     0
100
AcDbPoint
 10
361.612105778407
 20
198.1692786787307
 30
0.0
  0
POINT
  5
1093
330
1089
100
AcDbEntity
  8
Defpoints
 62
     0
100
AcDbPoint
 10
362.7932081406117
 20
198.1692786787307
 30
0.0
  0
POINT
  5
1094
330
1089
100
AcDbEntity
  8
Defpoints
 62
     0
100
AcDbPoint
 10
362.7932081406117
 20
197.8366047187521
 30
0.0
  0
ENDBLK
  5
1096
330
1089
100
AcDbEntity
  8
0
100
AcDbBlockEnd
  0
BLOCK
  5
10B3
330
10AD
100
AcDbEntity
  8
0
100
AcDbBlockBegin
  2
*D77
 70
     1
 10
0.0
 20
0.0
 30
0.0
  3
*D77
  1

  0
LINE
  5
10AE
330
10AD
100
AcDbEntity
  8
标注
370
    -2
100
AcDbLine
 10
368.0441987425965
 20
206.7228944286465
 30
0.0
 11
367.9079084200162
 21
207.358445329811
 31
0.0
  0
MTEXT
  5
10AF
330
10AD
100
AcDbEntity
  8
标注
100
AcDbMText
 10
368.5404353017359
 20
204.4088373013299
 30
0.0
 40
0.65
 41
0.0
 71
     5
 72
     1
  1
\A1;R18 1/2"
 11
0.2096774193546203
 21
-0.9777706171760259
 31
0.0
 73
     1
 44
1.0
1001
ACAD
1000
MTEXTBEGIN
1070
    73
1070
     1
1070
    44
1040
1.0
1070
    74
1070
     0
1000
MTEXTEND
  0
SOLID
  5
10B0
330
10AD
100
AcDbEntity
  8
标注
100
AcDbTrace
 10
368.0138335702102
 20
207.3811603835744
 30
0.0
 11
367.801983269822
 21
207.3357302760476
 31
0.0
 12
367.7716180974357
 22
207.9939962309754
 32
0.0
 13
367.7716180974357
 23
207.9939962309754
 33
0.0
  0
POINT
  5
10B1
330
10AD
100
AcDbEntity
  8
Defpoints
 62
     0
100
AcDbPoint
 10
367.7716180974357
 20
207.9939962309754
 30
0.0
  0
POINT
  5
10B2
330
10AD
100
AcDbEntity
  8
Defpoints
 62
     0
100
AcDbPoint
 10
371.6514758571471
 20
189.9013903225996
 30
0.0
  0
ENDBLK
  5
10B4
330
10AD
100
AcDbEntity
  8
0
100
AcDbBlockEnd
  0
BLOCK
  5
10BB
330
10B5
100
AcDbEntity
  8
0
100
AcDbBlockBegin
  2
*D78
 70
     1
 10
0.0
 20
0.0
 30
0.0
  3
*D78
  1

  0
LINE
  5
10B6
330
10B5
100
AcDbEntity
  8
标注
370
    -2
100
AcDbLine
 10
364.7148811305852
 20
204.2492001036627
 30
0.0
 11
364.1457113484498
 21
204.5631200920419
 31
0.0
  0
MTEXT
  5
10B7
330
10B5
100
AcDbEntity
  8
标注
100
AcDbMText
 10
366.5975196407251
 20
203.2108493728698
 30
0.0
 40
0.65
 41
0.0
 71
     5
 72
     1
  1
\A1;R6 1/4"
 11
0.875645818669742
 21
-0.4829538282757449
 31
0.0
 73
     1
 44
1.0
1001
ACAD
1000
MTEXTBEGIN
1070
    73
1070
     1
1070
    44
1040
1.0
1070
    74
1070
     0
1000
MTEXTEND
  0
SOLID
  5
10B8
330
10B5
100
AcDbEntity
  8
标注
100
AcDbTrace
 10
364.198031346513
 20
204.6579817223978
 30
0.0
 11
364.0933913503866
 21
204.4682584616861
 31
0.0
 12
363.5765415663144
 22
204.8770400804211
 32
0.0
 13
363.5765415663144
 23
204.8770400804211
 33
0.0
  0
POINT
  5
10B9
330
10B5
100
AcDbEntity
  8
Defpoints
 62
     0
100
AcDbPoint
 10
363.5765415663144
 20
204.8770400804211
 30
0.0
  0
POINT
  5
10BA
330
10B5
100
AcDbEntity
  8
Defpoints
 62
     0
100
AcDbPoint
 10
369.0924207390369
 20
201.8348112408891
 30
0.0
  0
ENDBLK
  5
10BC
330
10B5
100
AcDbEntity
  8
0
100
AcDbBlockEnd
  0
BLOCK
  5
10C8
330
10BD
100
AcDbEntity
  8
0
100
AcDbBlockBegin
  2
*D79
 70
     1
 10
0.0
 20
0.0
 30
0.0
  3
*D79
  1

  0
LINE
  5
11F9
330
10BD
100
AcDbEntity
  8
标注
370
    -2
100
AcDbLine
 10
382.3897435736828
 20
228.9003785154762
 30
0.0
 11
384.4979549907175
 21
228.9003785154762
 31
0.0
  0
LINE
  5
11FA
330
10BD
100
AcDbEntity
  8
标注
370
    -2
100
AcDbLine
 10
378.9406286603949
 20
218.8439520163346
 30
0.0
 11
384.4979549907175
 21
218.8439520163346
 31
0.0
  0
LINE
  5
11FB
330
10BD
100
AcDbEntity
  8
标注
370
    -2
100
AcDbLine
 10
384.1779549907175
 20
228.2503785154762
 30
0.0
 11
384.1779549907175
 21
223.9964272742815
 31
0.0
  0
LINE
  5
11FC
330
10BD
100
AcDbEntity
  8
标注
370
    -2
100
AcDbLine
 10
384.1779549907175
 20
219.4939520163346
 30
0.0
 11
384.1779549907175
 21
222.4047606076149
 31
0.0
  0
SOLID
  5
11FD
330
10BD
100
AcDbEntity
  8
标注
100
AcDbTrace
 10
384.0696216573842
 20
228.2503785154762
 30
0.0
 11
384.2862883240509
 21
228.2503785154762
 31
0.0
 12
384.1779549907175
 22
228.9003785154762
 32
0.0
 13
384.1779549907175
 23
228.9003785154762
 33
0.0
  0
SOLID
  5
11FE
330
10BD
100
AcDbEntity
  8
标注
100
AcDbTrace
 10
384.0696216573842
 20
219.4939520163346
 30
0.0
 11
384.2862883240509
 21
219.4939520163346
 31
0.0
 12
384.1779549907175
 22
218.8439520163346
 32
0.0
 13
384.1779549907175
 23
218.8439520163346
 33
0.0
  0
MTEXT
  5
11FF
330
10BD
100
AcDbEntity
  8
标注
100
AcDbMText
 10
384.1779549907175
 20
223.2005939409483
 30
0.0
 40
0.65
 41
0.0
 71
     5
 72
     1
  1
\A1;10"
 11
0.0000000000000001
 21
1.0
 31
0.0
 73
     1
 44
1.0
1001
ACAD
1000
MTEXTBEGIN
1070
    73
1070
     1
1070
    44
1040
1.0
1070
    74
1070
     0
1000
MTEXTEND
  0
POINT
  5
1200
330
10BD
100
AcDbEntity
  8
Defpoints
 62
     0
100
AcDbPoint
 10
381.5097435736829
 20
228.9003785154762
 30
0.0
  0
POINT
  5
1201
330
10BD
100
AcDbEntity
  8
Defpoints
 62
     0
100
AcDbPoint
 10
378.0606286603949
 20
218.8439520163346
 30
0.0
  0
POINT
  5
1202
330
10BD
100
AcDbEntity
  8
Defpoints
 62
     0
100
AcDbPoint
 10
384.1779549907175
 20
218.8439520163346
 30
0.0
  0
ENDBLK
  5
10C9
330
10BD
100
AcDbEntity
  8
0
100
AcDbBlockEnd
  0
BLOCK
  5
10D5
330
10CA
100
AcDbEntity
  8
0
100
AcDbBlockBegin
  2
*D80
 70
     1
 10
0.0
 20
0.0
 30
0.0
  3
*D80
  1

  0
LINE
  5
10CB
330
10CA
100
AcDbEntity
  8
标注
370
    -2
100
AcDbLine
 10
372.5314758571471
 20
208.4053273304736
 30
0.0
 11
384.4979549907172
 21
208.4053273304736
 31
0.0
  0
LINE
  5
10CC
330
10CA
100
AcDbEntity
  8
标注
370
    -2
100
AcDbLine
 10
377.4527356996669
 20
189.9013903225996
 30
0.0
 11
384.4979549907172
 21
189.9013903225996
 31
0.0
  0
LINE
  5
10CD
330
10CA
100
AcDbEntity
  8
标注
370
    -2
100
AcDbLine
 10
384.1779549907172
 20
207.7553273304736
 30
0.0
 11
384.1779549907172
 21
201.1950254932032
 31
0.0
  0
LINE
  5
10CE
330
10CA
100
AcDbEntity
  8
标注
370
    -2
100
AcDbLine
 10
384.1779549907172
 20
190.5513903225996
 30
0.0
 11
384.1779549907172
 21
197.1116921598699
 31
0.0
  0
SOLID
  5
10CF
330
10CA
100
AcDbEntity
  8
标注
100
AcDbTrace
 10
384.0696216573838
 20
207.7553273304736
 30
0.0
 11
384.2862883240505
 21
207.7553273304736
 31
0.0
 12
384.1779549907172
 22
208.4053273304736
 32
0.0
 13
384.1779549907172
 23
208.4053273304736
 33
0.0
  0
SOLID
  5
10D0
330
10CA
100
AcDbEntity
  8
标注
100
AcDbTrace
 10
384.0696216573838
 20
190.5513903225996
 30
0.0
 11
384.2862883240505
 21
190.5513903225996
 31
0.0
 12
384.1779549907172
 22
189.9013903225996
 32
0.0
 13
384.1779549907172
 23
189.9013903225996
 33
0.0
  0
MTEXT
  5
10D1
330
10CA
100
AcDbEntity
  8
标注
100
AcDbMText
 10
384.1779549907172
 20
199.1533588265366
 30
0.0
 40
0.65
 41
0.0
 71
     5
 72
     1
  1
\A1;18 1/2"
 11
0.0000000000000001
 21
1.0
 31
0.0
 73
     1
 44
1.0
1001
ACAD
1000
MTEXTBEGIN
1070
    73
1070
     1
1070
    44
1040
1.0
1070
    74
1070
     0
1000
MTEXTEND
  0
POINT
  5
10D2
330
10CA
100
AcDbEntity
  8
Defpoints
 62
     0
100
AcDbPoint
 10
371.6514758571471
 20
208.4053273304736
 30
0.0
  0
POINT
  5
10D3
330
10CA
100
AcDbEntity
  8
Defpoints
 62
     0
100
AcDbPoint
 10
376.5727356996669
 20
189.9013903225996
 30
0.0
  0
POINT
  5
10D4
330
10CA
100
AcDbEntity
  8
Defpoints
 62
     0
100
AcDbPoint
 10
384.1779549907172
 20
189.9013903225996
 30
0.0
  0
ENDBLK
  5
10D6
330
10CA
100
AcDbEntity
  8
0
100
AcDbBlockEnd
  0
BLOCK
  5
10E2
330
10D7
100
AcDbEntity
  8
0
100
AcDbBlockBegin
  2
*D81
 70
     1
 10
0.0
 20
0.0
 30
0.0
  3
*D81
  1

  0
LINE
  5
10D8
330
10D7
100
AcDbEntity
  8
标注
370
    -2
100
AcDbLine
 10
375.0905309752574
 20
209.4053100857582
 30
0.0
 11
386.8689336248434
 21
209.4053100857582
 31
0.0
  0
LINE
  5
10D9
330
10D7
100
AcDbEntity
  8
标注
370
    -2
100
AcDbLine
 10
377.4527356996669
 20
188.9013903225995
 30
0.0
 11
386.8689336248434
 21
188.9013903225995
 31
0.0
  0
LINE
  5
10DA
330
10D7
100
AcDbEntity
  8
标注
370
    -2
100
AcDbLine
 10
386.5489336248434
 20
208.7553100857582
 30
0.0
 11
386.5489336248434
 21
201.2491835375122
 31
0.0
  0
LINE
  5
10DB
330
10D7
100
AcDbEntity
  8
标注
370
    -2
100
AcDbLine
 10
386.5489336248434
 20
189.5513903225996
 30
0.0
 11
386.5489336248434
 21
197.0575168708455
 31
0.0
  0
SOLID
  5
10DC
330
10D7
100
AcDbEntity
  8
标注
100
AcDbTrace
 10
386.44060029151
 20
208.7553100857582
 30
0.0
 11
386.6572669581767
 21
208.7553100857582
 31
0.0
 12
386.5489336248434
 22
209.4053100857582
 32
0.0
 13
386.5489336248434
 23
209.4053100857582
 33
0.0
  0
SOLID
  5
10DD
330
10D7
100
AcDbEntity
  8
标注
100
AcDbTrace
 10
386.44060029151
 20
189.5513903225996
 30
0.0
 11
386.6572669581767
 21
189.5513903225996
 31
0.0
 12
386.5489336248434
 22
188.9013903225995
 32
0.0
 13
386.5489336248434
 23
188.9013903225995
 33
0.0
  0
MTEXT
  5
10DE
330
10D7
100
AcDbEntity
  8
标注
100
AcDbMText
 10
386.5489336248433
 20
199.1533502041789
 30
0.0
 40
0.65
 41
0.0
 71
     5
 72
     1
  1
\A1;20 1/2"
 11
0.0000000000000001
 21
1.0
 31
0.0
 73
     1
 44
1.0
1001
ACAD
1000
MTEXTBEGIN
1070
    73
1070
     1
1070
    44
1040
1.0
1070
    74
1070
     0
1000
MTEXTEND
  0
POINT
  5
10DF
330
10D7
100
AcDbEntity
  8
Defpoints
 62
     0
100
AcDbPoint
 10
374.2105309752573
 20
209.4053100857582
 30
0.0
  0
POINT
  5
10E0
330
10D7
100
AcDbEntity
  8
Defpoints
 62
     0
100
AcDbPoint
 10
376.5727356996669
 20
188.9013903225995
 30
0.0
  0
POINT
  5
10E1
330
10D7
100
AcDbEntity
  8
Defpoints
 62
     0
100
AcDbPoint
 10
386.5489336248434
 20
188.9013903225995
 30
0.0
  0
ENDBLK
  5
10E3
330
10D7
100
AcDbEntity
  8
0
100
AcDbBlockEnd
  0
BLOCK
  5
10EF
330
10E4
100
AcDbEntity
  8
0
100
AcDbBlockBegin
  2
*D82
 70
     1
 10
0.0
 20
0.0
 30
0.0
  3
*D82
  1

  0
LINE
  5
10E5
330
10E4
100
AcDbEntity
  8
标注
370
    -2
100
AcDbLine
 10
354.2360427862811
 20
206.4369952141638
 30
0.0
 11
344.7814135629433
 21
206.4369952141638
 31
0.0
  0
LINE
  5
10E6
330
10E4
100
AcDbEntity
  8
标注
370
    -2
100
AcDbLine
 10
354.2360427862811
 20
189.9015621432976
 30
0.0
 11
344.7814135629433
 21
189.9015621432976
 31
0.0
  0
LINE
  5
10E7
330
10E4
100
AcDbEntity
  8
标注
370
    -2
100
AcDbLine
 10
345.1014135629433
 20
205.7869952141639
 30
0.0
 11
345.1014135629433
 21
200.2109453453974
 31
0.0
  0
LINE
  5
10E8
330
10E4
100
AcDbEntity
  8
标注
370
    -2
100
AcDbLine
 10
345.1014135629433
 20
190.5515621432977
 30
0.0
 11
345.1014135629433
 21
196.1276120120641
 31
0.0
  0
SOLID
  5
10E9
330
10E4
100
AcDbEntity
  8
标注
100
AcDbTrace
 10
344.9930802296099
 20
205.7869952141639
 30
0.0
 11
345.2097468962766
 21
205.7869952141639
 31
0.0
 12
345.1014135629433
 22
206.4369952141638
 32
0.0
 13
345.1014135629433
 23
206.4369952141638
 33
0.0
  0
SOLID
  5
10EA
330
10E4
100
AcDbEntity
  8
标注
100
AcDbTrace
 10
344.9930802296099
 20
190.5515621432977
 30
0.0
 11
345.2097468962766
 21
190.5515621432977
 31
0.0
 12
345.1014135629433
 22
189.9015621432976
 32
0.0
 13
345.1014135629433
 23
189.9015621432976
 33
0.0
  0
MTEXT
  5
10EB
330
10E4
100
AcDbEntity
  8
标注
100
AcDbMText
 10
345.1014135629432
 20
198.1692786787308
 30
0.0
 40
0.65
 41
0.0
 71
     5
 72
     1
  1
\A1;16 1/2"
 11
0.0000000000000001
 21
1.0
 31
0.0
 73
     1
 44
1.0
1001
ACAD
1000
MTEXTBEGIN
1070
    73
1070
     1
1070
    44
1040
1.0
1070
    74
1070
     0
1000
MTEXTEND
  0
POINT
  5
10EC
330
10E4
100
AcDbEntity
  8
Defpoints
 62
     0
100
AcDbPoint
 10
355.1160427862811
 20
206.4369952141638
 30
0.0
  0
POINT
  5
10ED
330
10E4
100
AcDbEntity
  8
Defpoints
 62
     0
100
AcDbPoint
 10
355.1160427862811
 20
189.9015621432976
 30
0.0
  0
POINT
  5
10EE
330
10E4
100
AcDbEntity
  8
Defpoints
 62
     0
100
AcDbPoint
 10
345.1014135629433
 20
189.9015621432976
 30
0.0
  0
ENDBLK
  5
10F0
330
10E4
100
AcDbEntity
  8
0
100
AcDbBlockEnd
  0
BLOCK
  5
10FC
330
10F1
100
AcDbEntity
  8
0
100
AcDbBlockBegin
  2
*D83
 70
     1
 10
0.0
 20
0.0
 30
0.0
  3
*D83
  1

  0
LINE
  5
10F2
330
10F1
100
AcDbEntity
  8
标注
370
    -2
100
AcDbLine
 10
351.2832868807692
 20
207.4369952141638
 30
0.0
 11
342.6212734232876
 21
207.4369952141638
 31
0.0
  0
LINE
  5
10F3
330
10F1
100
AcDbEntity
  8
标注
370
    -2
100
AcDbLine
 10
351.2832868807692
 20
188.9013903225995
 30
0.0
 11
342.6212734232876
 21
188.9013903225995
 31
0.0
  0
LINE
  5
10F4
330
10F1
100
AcDbEntity
  8
标注
370
    -2
100
AcDbLine
 10
342.9412734232876
 20
206.7869952141638
 30
0.0
 11
342.9412734232876
 21
200.2108594350484
 31
0.0
  0
LINE
  5
10F5
330
10F1
100
AcDbEntity
  8
标注
370
    -2
100
AcDbLine
 10
342.9412734232876
 20
189.5513903225996
 30
0.0
 11
342.9412734232876
 21
196.127526101715
 31
0.0
  0
SOLID
  5
10F6
330
10F1
100
AcDbEntity
  8
标注
100
AcDbTrace
 10
342.8329400899543
 20
206.7869952141638
 30
0.0
 11
343.049606756621
 21
206.7869952141638
 31
0.0
 12
342.9412734232876
 22
207.4369952141638
 32
0.0
 13
342.9412734232876
 23
207.4369952141638
 33
0.0
  0
SOLID
  5
10F7
330
10F1
100
AcDbEntity
  8
标注
100
AcDbTrace
 10
342.8329400899543
 20
189.5513903225996
 30
0.0
 11
343.049606756621
 21
189.5513903225996
 31
0.0
 12
342.9412734232876
 22
188.9013903225995
 32
0.0
 13
342.9412734232876
 23
188.9013903225995
 33
0.0
  0
MTEXT
  5
10F8
330
10F1
100
AcDbEntity
  8
标注
100
AcDbMText
 10
342.9412734232875
 20
198.1691927683817
 30
0.0
 40
0.65
 41
0.0
 71
     5
 72
     1
  1
\A1;18 1/2"
 11
0.0000000000000001
 21
1.0
 31
0.0
 73
     1
 44
1.0
1001
ACAD
1000
MTEXTBEGIN
1070
    73
1070
     1
1070
    44
1040
1.0
1070
    74
1070
     0
1000
MTEXTEND
  0
POINT
  5
10F9
330
10F1
100
AcDbEntity
  8
Defpoints
 62
     0
100
AcDbPoint
 10
352.1632868807694
 20
207.4369952141638
 30
0.0
  0
POINT
  5
10FA
330
10F1
100
AcDbEntity
  8
Defpoints
 62
     0
100
AcDbPoint
 10
352.1632868807694
 20
188.9013903225995
 30
0.0
  0
POINT
  5
10FB
330
10F1
100
AcDbEntity
  8
Defpoints
 62
     0
100
AcDbPoint
 10
342.9412734232876
 20
188.9013903225995
 30
0.0
  0
ENDBLK
  5
10FD
330
10F1
100
AcDbEntity
  8
0
100
AcDbBlockEnd
  0
BLOCK
  5
1109
330
10FE
100
AcDbEntity
  8
0
100
AcDbBlockBegin
  2
*D84
 70
     1
 10
0.0
 20
0.0
 30
0.0
  3
*D84
  1

  0
LINE
  5
10FF
330
10FE
100
AcDbEntity
  8
标注
370
    -2
100
AcDbLine
 10
361.612105778407
 20
197.2892786787308
 30
0.0
 11
361.612105778407
 21
185.9859484721582
 31
0.0
  0
LINE
  5
1100
330
10FE
100
AcDbEntity
  8
标注
370
    -2
100
AcDbLine
 10
348.619979794155
 20
197.2892786787309
 30
0.0
 11
348.619979794155
 21
185.9859484721582
 31
0.0
  0
LINE
  5
1101
330
10FE
100
AcDbEntity
  8
标注
370
    -2
100
AcDbLine
 10
360.962105778407
 20
186.3059484721581
 30
0.0
 11
355.9660427862811
 21
186.3059484721581
 31
0.0
  0
LINE
  5
1102
330
10FE
100
AcDbEntity
  8
标注
370
    -2
100
AcDbLine
 10
349.269979794155
 20
186.3059484721581
 30
0.0
 11
354.266042786281
 21
186.3059484721581
 31
0.0
  0
SOLID
  5
1103
330
10FE
100
AcDbEntity
  8
标注
100
AcDbTrace
 10
360.962105778407
 20
186.4142818054915
 30
0.0
 11
360.962105778407
 21
186.1976151388248
 31
0.0
 12
361.612105778407
 22
186.3059484721581
 32
0.0
 13
361.612105778407
 23
186.3059484721581
 33
0.0
  0
SOLID
  5
1104
330
10FE
100
AcDbEntity
  8
标注
100
AcDbTrace
 10
349.269979794155
 20
186.4142818054915
 30
0.0
 11
349.269979794155
 21
186.1976151388248
 31
0.0
 12
348.619979794155
 22
186.3059484721581
 32
0.0
 13
348.619979794155
 23
186.3059484721581
 33
0.0
  0
MTEXT
  5
1105
330
10FE
100
AcDbEntity
  8
标注
100
AcDbMText
 10
355.1160427862809
 20
186.3059484721581
 30
0.0
 40
0.65
 41
0.0
 71
     5
 72
     1
  1
\A1;13"
 73
     1
 44
1.0
1001
ACAD
1000
MTEXTBEGIN
1070
    73
1070
     1
1070
    44
1040
1.0
1070
    74
1070
     0
1000
MTEXTEND
  0
POINT
  5
1106
330
10FE
100
AcDbEntity
  8
Defpoints
 62
     0
100
AcDbPoint
 10
361.612105778407
 20
198.1692786787308
 30
0.0
  0
POINT
  5
1107
330
10FE
100
AcDbEntity
  8
Defpoints
 62
     0
100
AcDbPoint
 10
348.619979794155
 20
198.1692786787309
 30
0.0
  0
POINT
  5
1108
330
10FE
100
AcDbEntity
  8
Defpoints
 62
     0
100
AcDbPoint
 10
348.619979794155
 20
186.3059484721581
 30
0.0
  0
ENDBLK
  5
110A
330
10FE
100
AcDbEntity
  8
0
100
AcDbBlockEnd
  0
BLOCK
  5
1116
330
110B
100
AcDbEntity
  8
0
100
AcDbBlockBegin
  2
*D85
 70
     1
 10
0.0
 20
0.0
 30
0.0
  3
*D85
  1

  0
LINE
  5
110C
330
110B
100
AcDbEntity
  8
标注
370
    -2
100
AcDbLine
 10
380.5097435736826
 20
192.9583981966153
 30
0.0
 11
380.5097435736826
 21
185.9763542414809
 31
0.0
  0
LINE
  5
110D
330
110B
100
AcDbEntity
  8
标注
370
    -2
100
AcDbLine
 10
362.7932081406117
 20
192.9583981966153
 30
0.0
 11
362.7932081406117
 21
185.9763542414809
 31
0.0
  0
LINE
  5
110E
330
110B
100
AcDbEntity
  8
标注
370
    -2
100
AcDbLine
 10
379.8597435736827
 20
186.2963542414809
 30
0.0
 11
373.8014758571472
 21
186.2963542414809
 31
0.0
  0
LINE
  5
110F
330
110B
100
AcDbEntity
  8
标注
370
    -2
100
AcDbLine
 10
363.4432081406117
 20
186.2963542414809
 30
0.0
 11
369.5014758571472
 21
186.2963542414809
 31
0.0
  0
SOLID
  5
1110
330
110B
100
AcDbEntity
  8
标注
100
AcDbTrace
 10
379.8597435736827
 20
186.4046875748142
 30
0.0
 11
379.8597435736827
 21
186.1880209081476
 31
0.0
 12
380.5097435736826
 22
186.2963542414809
 32
0.0
 13
380.5097435736826
 23
186.2963542414809
 33
0.0
  0
SOLID
  5
1111
330
110B
100
AcDbEntity
  8
标注
100
AcDbTrace
 10
363.4432081406117
 20
186.4046875748142
 30
0.0
 11
363.4432081406117
 21
186.1880209081476
 31
0.0
 12
362.7932081406117
 22
186.2963542414809
 32
0.0
 13
362.7932081406117
 23
186.2963542414809
 33
0.0
  0
MTEXT
  5
1112
330
110B
100
AcDbEntity
  8
标注
100
AcDbMText
 10
371.6514758571472
 20
186.2963542414809
 30
0.0
 40
0.65
 41
0.0
 71
     5
 72
     1
  1
\A1;17 3/4"
 73
     1
 44
1.0
1001
ACAD
1000
MTEXTBEGIN
1070
    73
1070
     1
1070
    44
1040
1.0
1070
    74
1070
     0
1000
MTEXTEND
  0
POINT
  5
1113
330
110B
100
AcDbEntity
  8
Defpoints
 62
     0
100
AcDbPoint
 10
380.5097435736826
 20
193.8383981966153
 30
0.0
  0
POINT
  5
1114
330
110B
100
AcDbEntity
  8
Defpoints
 62
     0
100
AcDbPoint
 10
362.7932081406117
 20
193.8383981966153
 30
0.0
  0
POINT
  5
1115
330
110B
100
AcDbEntity
  8
Defpoints
 62
     0
100
AcDbPoint
 10
362.7932081406117
 20
186.2963542414809
 30
0.0
  0
ENDBLK
  5
1117
330
110B
100
AcDbEntity
  8
0
100
AcDbBlockEnd
  0
BLOCK
  5
1123
330
1118
100
AcDbEntity
  8
0
100
AcDbBlockBegin
  2
*D86
 70
     1
 10
0.0
 20
0.0
 30
0.0
  3
*D86
  1

  0
LINE
  5
1119
330
1118
100
AcDbEntity
  8
标注
370
    -2
100
AcDbLine
 10
381.5097435736826
 20
192.9583981966153
 30
0.0
 11
381.5097435736826
 21
183.7624627921467
 31
0.0
  0
LINE
  5
111A
330
1118
100
AcDbEntity
  8
标注
370
    -2
100
AcDbLine
 10
347.6199797941551
 20
192.9583981966153
 30
0.0
 11
347.6199797941551
 21
183.7624627921467
 31
0.0
  0
LINE
  5
111B
330
1118
100
AcDbEntity
  8
标注
370
    -2
100
AcDbLine
 10
380.8597435736826
 20
184.0824627921467
 30
0.0
 11
366.8231950172522
 21
184.0824627921467
 31
0.0
  0
LINE
  5
111C
330
1118
100
AcDbEntity
  8
标注
370
    -2
100
AcDbLine
 10
348.2699797941551
 20
184.0824627921467
 30
0.0
 11
362.3065283505855
 21
184.0824627921467
 31
0.0
  0
SOLID
  5
111D
330
1118
100
AcDbEntity
  8
标注
100
AcDbTrace
 10
380.8597435736826
 20
184.1907961254801
 30
0.0
 11
380.8597435736826
 21
183.9741294588134
 31
0.0
 12
381.5097435736826
 22
184.0824627921467
 32
0.0
 13
381.5097435736826
 23
184.0824627921467
 33
0.0
  0
SOLID
  5
111E
330
1118
100
AcDbEntity
  8
标注
100
AcDbTrace
 10
348.2699797941551
 20
184.1907961254801
 30
0.0
 11
348.2699797941551
 21
183.9741294588134
 31
0.0
 12
347.6199797941551
 22
184.0824627921467
 32
0.0
 13
347.6199797941551
 23
184.0824627921467
 33
0.0
  0
MTEXT
  5
111F
330
1118
100
AcDbEntity
  8
标注
100
AcDbMText
 10
364.5648616839188
 20
184.0824627921467
 30
0.0
 40
0.65
 41
0.0
 71
     5
 72
     1
  1
\A1;33 7/8"
 73
     1
 44
1.0
1001
ACAD
1000
MTEXTBEGIN
1070
    73
1070
     1
1070
    44
1040
1.0
1070
    74
1070
     0
1000
MTEXTEND
  0
POINT
  5
1120
330
1118
100
AcDbEntity
  8
Defpoints
 62
     0
100
AcDbPoint
 10
381.5097435736826
 20
193.8383981966153
 30
0.0
  0
POINT
  5
1121
330
1118
100
AcDbEntity
  8
Defpoints
 62
     0
100
AcDbPoint
 10
347.6199797941551
 20
193.8383981966153
 30
0.0
  0
POINT
  5
1122
330
1118
100
AcDbEntity
  8
Defpoints
 62
     0
100
AcDbPoint
 10
347.6199797941551
 20
184.0824627921467
 30
0.0
  0
ENDBLK
  5
1124
330
1118
100
AcDbEntity
  8
0
100
AcDbBlockEnd
  0
BLOCK
  5
1181
330
1180
100
AcDbEntity
  8
0
100
AcDbBlockBegin
  2
*D87
 70
     1
 10
0.0
 20
0.0
 30
0.0
  3
*D87
  1

  0
LINE
  5
11DC
330
1180
100
AcDbEntity
  8
标注
370
    -2
100
AcDbLine
 10
346.7399797941554
 20
228.9003785154761
 30
0.0
 11
345.1075482128682
 21
228.9003785154761
 31
0.0
  0
LINE
  5
11DD
330
1180
100
AcDbEntity
  8
标注
370
    -2
100
AcDbLine
 10
352.5853535902293
 20
221.4003785154761
 30
0.0
 11
345.1075482128682
 21
221.4003785154761
 31
0.0
  0
LINE
  5
11DE
330
1180
100
AcDbEntity
  8
标注
370
    -2
100
AcDbLine
 10
345.4275482128681
 20
228.2503785154761
 30
0.0
 11
345.4275482128681
 21
226.9753785154761
 31
0.0
  0
LINE
  5
11DF
330
1180
100
AcDbEntity
  8
标注
370
    -2
100
AcDbLine
 10
345.4275482128681
 20
222.0503785154761
 30
0.0
 11
345.4275482128681
 21
223.3253785154762
 31
0.0
  0
SOLID
  5
11E0
330
1180
100
AcDbEntity
  8
标注
100
AcDbTrace
 10
345.3192148795348
 20
228.2503785154761
 30
0.0
 11
345.5358815462015
 21
228.2503785154761
 31
0.0
 12
345.4275482128681
 22
228.9003785154761
 32
0.0
 13
345.4275482128681
 23
228.9003785154761
 33
0.0
  0
SOLID
  5
11E1
330
1180
100
AcDbEntity
  8
标注
100
AcDbTrace
 10
345.3192148795348
 20
222.0503785154761
 30
0.0
 11
345.5358815462015
 21
222.0503785154761
 31
0.0
 12
345.4275482128681
 22
221.4003785154761
 32
0.0
 13
345.4275482128681
 23
221.4003785154761
 33
0.0
  0
MTEXT
  5
11E2
330
1180
100
AcDbEntity
  8
标注
100
AcDbMText
 10
345.4275482128681
 20
225.1503785154762
 30
0.0
 40
0.65
 41
0.0
 71
     5
 72
     1
  1
\A1;7 1/2"
 11
0.0000000000000001
 21
1.0
 31
0.0
 73
     1
 44
1.0
1001
ACAD
1000
MTEXTBEGIN
1070
    73
1070
     1
1070
    44
1040
1.0
1070
    74
1070
     0
1000
MTEXTEND
  0
POINT
  5
11E3
330
1180
100
AcDbEntity
  8
Defpoints
 62
     0
100
AcDbPoint
 10
347.6199797941554
 20
228.9003785154761
 30
0.0
  0
POINT
  5
11E4
330
1180
100
AcDbEntity
  8
Defpoints
 62
     0
100
AcDbPoint
 10
353.4653535902293
 20
221.4003785154761
 30
0.0
  0
POINT
  5
11E5
330
1180
100
AcDbEntity
  8
Defpoints
 62
     0
100
AcDbPoint
 10
345.4275482128681
 20
221.4003785154761
 30
0.0
  0
ENDBLK
  5
1182
330
1180
100
AcDbEntity
  8
0
100
AcDbBlockEnd
  0
ENDSEC
  0
SECTION
  2
ENTITIES
  0
MTEXT
  5
268
330
21
100
AcDbEntity
  8
标注
 48
5.0
100
AcDbMText
 10
359.0162422867218
 20
50.382554206885
 30
0.0
 40
0.7874015748031497
 41
15.1555422233215
 71
     1
 72
     5
  1
1/4" {\fArial|b0|i0|c0|p32;OVERHANG CUTOUT}
 73
     1
 44
1.0
1001
ACAD
1000
MTEXTBEGIN
1070
    73
1070
     1
1070
    44
1040
1.0
1070
    74
1070
     0
1000
MTEXTEND
  0
MTEXT
  5
269
330
21
100
AcDbEntity
  8
标注
 48
5.0
100
AcDbMText
 10
362.558273658734
 20
80.08219346040618
 30
0.0
 40
0.7874015748031497
 41
15.1555422233215
 71
     1
 72
     5
  1
{\fArial|b0|i0|c0|p32;FLUSH CUTOUT}
 73
     1
 44
1.0
1001
ACAD
1000
MTEXTBEGIN
1070
    73
1070
     1
1070
    44
1040
1.0
1070
    74
1070
     0
1000
MTEXTEND
  0
MTEXT
  5
26A
330
21
100
AcDbEntity
  8
标注
 48
5.0
100
AcDbMText
 10
361.2056266476466
 20
109.6371411595318
 30
0.0
 40
0.7874015748031497
 41
15.1555422233215
 71
     1
 72
     5
  1
1/4" {\fArial|b0|i0|c0|p32;REVEAL CUTOUT}
 73
     1
 44
1.0
1001
ACAD
1000
MTEXTBEGIN
1070
    73
1070
     1
1070
    44
1040
1.0
1070
    74
1070
     0
1000
MTEXTEND
  0
MTEXT
  5
26B
330
21
100
AcDbEntity
  8
标注
 48
5.0
100
AcDbMText
 10
366.0149129367155
 20
141.0170424418815
 30
0.0
 40
0.7874015748031497
 41
15.1555422233215
 71
     1
 72
     5
  1
1/4" {\fArial|b0|i0|c0|p32;OVERHANG CUTOUT}
 73
     1
 44
1.0
1001
ACAD
1000
MTEXTBEGIN
1070
    73
1070
     1
1070
    44
1040
1.0
1070
    74
1070
     0
1000
MTEXTEND
  0
MTEXT
  5
26C
330
21
100
AcDbEntity
  8
标注
 48
5.0
100
AcDbMText
 10
366.0149129367152
 20
142.9855463788894
 30
0.0
 40
0.7874015748031497
 41
15.1555422233215
 71
     1
 72
     5
  1
{\fArial|b0|i0|c0|p32;FLUSH CUTOUT}
 73
     1
 44
1.0
1001
ACAD
1000
MTEXTBEGIN
1070
    73
1070
     1
1070
    44
1040
1.0
1070
    74
1070
     0
1000
MTEXTEND
  0
MTEXT
  5
26D
330
21
100
AcDbEntity
  8
标注
 48
5.0
100
AcDbMText
 10
366.0149129367155
 20
144.9540503158973
 30
0.0
 40
0.7874015748031497
 41
15.1555422233215
 71
     1
 72
     5
  1
1/4" {\fArial|b0|i0|c0|p32;REVEAL CUTOUT}
 73
     1
 44
1.0
1001
ACAD
1000
MTEXTBEGIN
1070
    73
1070
     1
1070
    44
1040
1.0
1070
    74
1070
     0
1000
MTEXTEND
  0
LINE
  5
26E
330
21
100
AcDbEntity
  8
虚线
 62
    11
 48
0.15
370
    35
100
AcDbLine
 10
358.3495068561485
 20
140.4688775042707
 30
0.0
 11
364.5663118602325
 21
140.4688775042707
 31
0.0
  0
LINE
  5
26F
330
21
100
AcDbEntity
  8
截面层
 62
     1
 48
0.2
370
    35
100
AcDbLine
 10
358.3495068561485
 20
142.4373814412786
 30
0.0
 11
364.5663118602325
 21
142.4373814412786
 31
0.0
  0
LINE
  5
270
330
21
100
AcDbEntity
  8
虚线
 62
     3
 48
0.3
370
    35
100
AcDbLine
 10
358.3495068561485
 20
144.4058853782865
 30
0.0
 11
364.5663118602325
 21
144.4058853782865
 31
0.0
  0
MTEXT
  5
271
330
21
100
AcDbEntity
  8
标注
 48
5.0
100
AcDbMText
 10
363.449463806502
 20
216.0878276870517
 30
0.0
 40
0.7874015748031497
 41
15.1555422233215
 71
     1
 72
     5
  1
{\fArial|b0|i0|c0|p32;FRONT VIEW }
 73
     1
 44
1.0
1001
ACAD
1000
MTEXTBEGIN
1070
    73
1070
     1
1070
    44
1040
1.0
1070
    74
1070
     0
1000
MTEXTEND
  0
MTEXT
  5
272
330
21
100
AcDbEntity
  8
标注
 48
5.0
100
AcDbMText
 10
363.2150056592737
 20
182.0105508529116
 30
0.0
 40
0.7874015748031497
 41
15.1555422233215
 71
     1
 72
     5
  1
{\fArial|b0|i0|c0|p32;OVERHEAD VIEW}
 73
     1
 44
1.0
1001
ACAD
1000
MTEXTBEGIN
1070
    73
1070
     1
1070
    44
1040
1.0
1070
    74
1070
     0
1000
MTEXTEND
  0
DIMENSION
  5
F4F
102
{ACAD_XDICTIONARY
360
F50
102
}
102
{ACAD_REACTORS
330
F51
102
}
330
21
100
AcDbEntity
  8
标注
100
AcDbDimension
  2
*D74
 10
359.3494769825096
 20
223.5473220233942
 30
0.0
 11
359.1601178006317
 21
223.7230468405078
 31
0.0
 70
   164
 71
     5
 42
2.000000000000113
  3
副本Standard
100
AcDbRadialDimension
 15
360.8154835518872
 25
222.1868718263849
 35
0.0
 40
0.0
1001
ACAD
1000
DSTYLE
1002
{
1070
   288
1070
     1
1002
}
  0
DIMENSION
  5
F52
102
{ACAD_XDICTIONARY
360
F53
102
}
102
{ACAD_REACTORS
330
F54
102
}
330
21
100
AcDbEntity
  8
标注
100
AcDbDimension
  2
*D73
 10
377.8435720187915
 20
220.832138731494
 30
0.0
 11
377.6538674176519
 21
221.0074905932397
 31
0.0
 70
   164
 71
     5
 42
1.999999999999829
  3
副本Standard
100
AcDbRadialDimension
 15
379.3122528018068
 25
219.4745759308836
 35
0.0
 40
0.0
1001
ACAD
1000
DSTYLE
1002
{
1070
   288
1070
     1
1002
}
  0
LINE
  5
F55
330
21
100
AcDbEntity
  8
中心线
 48
0.1
100
AcDbLine
 10
355.1001801038803
 20
223.8529697504308
 30
0.0
 11
355.10018010388
 21
220.157403115065
 31
0.0
  0
LINE
  5
F56
330
21
100
AcDbEntity
  8
0
100
AcDbLine
 10
353.3300329055964
 20
221.2035281217753
 30
0.0
 11
356.8703273021637
 21
221.2035281217753
 31
0.0
  0
LINE
  5
F57
330
21
100
AcDbEntity
  8
截面层
100
AcDbLine
 10
356.8703273021637
 20
221.2035281217753
 30
0.0
 11
357.2185743049017
 21
221.2035281217753
 31
0.0
  0
LINE
  5
F58
330
21
100
AcDbEntity
  8
截面层
100
AcDbLine
 10
352.8757706550608
 20
221.4003785154761
 30
0.0
 11
353.0287255636701
 21
221.2035281217753
 31
0.0
  0
LINE
  5
F59
330
21
100
AcDbEntity
  8
截面层
100
AcDbLine
 10
353.0287255636701
 20
221.2035281217753
 30
0.0
 11
353.3300329055964
 21
221.2035281217753
 31
0.0
  0
LINE
  5
F5A
330
21
100
AcDbEntity
  8
截面层
100
AcDbLine
 10
357.2185743049017
 20
221.2035281217753
 30
0.0
 11
357.3245895526986
 21
221.4003785154761
 31
0.0
  0
LINE
  5
F5B
102
{ACAD_REACTORS
330
1198
102
}
330
21
100
AcDbEntity
  8
0
100
AcDbLine
 10
352.8757706550608
 20
221.4003785154761
 30
0.0
 11
357.3245895526986
 21
221.4003785154761
 31
0.0
  0
LINE
  5
F5C
330
21
100
AcDbEntity
  8
中心线
 48
0.1
100
AcDbLine
 10
371.6514758571481
 20
220.9779697504309
 30
0.0
 11
371.6514758571478
 21
218.2824031150651
 31
0.0
  0
LINE
  5
F5D
330
21
100
AcDbEntity
  8
0
100
AcDbLine
 10
369.8813286588642
 20
218.3285281217754
 30
0.0
 11
373.4216230554316
 21
218.3285281217754
 31
0.0
  0
LINE
  5
F5E
330
21
100
AcDbEntity
  8
截面层
100
AcDbLine
 10
373.4216230554316
 20
218.3285281217754
 30
0.0
 11
373.7698700581695
 21
218.3285281217754
 31
0.0
  0
LINE
  5
F5F
330
21
100
AcDbEntity
  8
截面层
100
AcDbLine
 10
369.4270664083286
 20
218.5253785154762
 30
0.0
 11
369.5800213169379
 21
218.3285281217754
 31
0.0
  0
LINE
  5
F60
330
21
100
AcDbEntity
  8
截面层
100
AcDbLine
 10
369.5800213169379
 20
218.3285281217754
 30
0.0
 11
369.8813286588642
 21
218.3285281217754
 31
0.0
  0
LINE
  5
F61
330
21
100
AcDbEntity
  8
截面层
100
AcDbLine
 10
373.7698700581695
 20
218.3285281217754
 30
0.0
 11
373.8758853059664
 21
218.5253785154762
 31
0.0
  0
LINE
  5
F62
330
21
100
AcDbEntity
  8
0
100
AcDbLine
 10
369.4270664083286
 20
218.5253785154762
 30
0.0
 11
373.8758853059664
 21
218.5253785154762
 31
0.0
  0
ARC
  5
F63
330
21
100
AcDbEntity
  8
截面层
100
AcDbCircle
 10
350.8508832252498
 20
223.5473220233941
 30
0.0
 40
2.0
100
AcDbArc
 50
182.9999999999999
 51
265.0434067928578
  0
ARC
  5
F64
102
{ACAD_REACTORS
330
F51
102
}
330
21
100
AcDbEntity
  8
截面层
100
AcDbCircle
 10
359.3494769825095
 20
223.5473220233941
 30
0.0
 40
2.0
100
AcDbArc
 50
274.9565932071422
 51
357.0000000000002
  0
ARC
  5
F65
330
21
100
AcDbEntity
  8
截面层
100
AcDbCircle
 10
365.4593796955035
 20
220.832138731494
 30
0.0
 40
2.0
100
AcDbArc
 50
185.9394423480045
 51
263.7695133375262
  0
ARC
  5
F66
102
{ACAD_REACTORS
330
F54
102
}
330
21
100
AcDbEntity
  8
截面层
100
AcDbCircle
 10
377.8435720187915
 20
220.832138731494
 30
0.0
 40
2.0
100
AcDbArc
 50
276.2304866624755
 51
354.0605576519961
  0
DIMENSION
  5
F67
102
{ACAD_XDICTIONARY
360
F68
102
}
102
{ACAD_REACTORS
330
F69
102
}
330
21
100
AcDbEntity
  8
标注
100
AcDbDimension
  2
*D79
 10
384.1779549907175
 20
218.8439520163346
 30
0.0
 11
384.1779549907175
 21
223.2005939409483
 31
0.0
 70
   160
 71
     5
 42
10.05642649914159
  3
副本Standard
100
AcDbAlignedDimension
 13
381.5097435736829
 23
228.9003785154762
 33
0.0
 14
378.0606286603949
 24
218.8439520163346
 34
0.0
 50
90.0
100
AcDbRotatedDimension
  0
LINE
  5
F6A
102
{ACAD_REACTORS
330
F69
102
}
330
21
100
AcDbEntity
  8
截面层
100
AcDbLine
 10
381.5097435736829
 20
228.9003785154762
 30
0.0
 11
380.7065939673837
 21
228.9003785154763
 31
0.0
  0
LINE
  5
F6B
330
21
100
AcDbEntity
  8
截面层
100
AcDbLine
 10
362.5963577469113
 20
228.9003785154761
 30
0.0
 11
361.7930934897064
 21
228.9003785154761
 31
0.0
  0
LINE
  5
F6C
330
21
100
AcDbEntity
  8
截面层
100
AcDbLine
 10
380.509743573683
 20
228.5066777280747
 30
0.0
 11
379.8328356571287
 21
220.6251842022146
 31
0.0
  0
LINE
  5
F6D
330
21
100
AcDbEntity
  8
截面层
100
AcDbLine
 10
362.7932081406121
 20
228.5066777280747
 30
0.0
 11
363.4701160571662
 21
220.6251842022146
 31
0.0
  0
LINE
  5
F6E
330
21
100
AcDbEntity
  8
截面层
100
AcDbLine
 10
380.509743573683
 20
228.7035281217755
 30
0.0
 11
380.509743573683
 21
228.5066777280747
 31
0.0
  0
LINE
  5
F6F
330
21
100
AcDbEntity
  8
截面层
100
AcDbLine
 10
362.7932081406121
 20
228.5066777280748
 30
0.0
 11
362.7932081406121
 21
228.7035281217753
 31
0.0
  0
ARC
  5
F70
102
{ACAD_REACTORS
330
F69
102
}
330
21
100
AcDbEntity
  8
截面层
100
AcDbCircle
 10
370.5709509427945
 20
289.5830310228214
 30
0.0
 40
71.13446823446071
100
AcDbArc
 50
272.662942248262
 51
276.0438178967018
  0
ARC
  5
F71
330
21
100
AcDbEntity
  8
截面层
100
AcDbCircle
 10
372.7320007714997
 20
289.5830310228074
 30
0.0
 40
71.13446823444672
100
AcDbArc
 50
263.9561821032978
 51
267.3370577517382
  0
ARC
  5
F72
330
21
100
AcDbEntity
  8
截面层
100
AcDbCircle
 10
380.7065939673837
 20
228.7035281217755
 30
0.0
 40
0.1968503937007874
100
AcDbArc
 50
90.0
 51
180.0
  0
ARC
  5
F73
330
21
100
AcDbEntity
  8
截面层
100
AcDbCircle
 10
362.5963577469113
 20
228.7035281217753
 30
0.0
 40
0.1968503937007874
100
AcDbArc
 50
0.000000000000007
 51
90.0
  0
LINE
  5
F74
330
21
100
AcDbEntity
  8
0
100
AcDbLine
 10
380.7065939673837
 20
228.9003785154763
 30
0.0
 11
362.5963577469113
 21
228.9003785154761
 31
0.0
  0
LINE
  5
F75
330
21
100
AcDbEntity
  8
截面层
100
AcDbLine
 10
361.5962430960057
 20
228.7035281217753
 30
0.0
 11
361.3467360520187
 21
223.4426501109083
 31
0.0
  0
ARC
  5
F76
330
21
100
AcDbEntity
  8
截面层
100
AcDbCircle
 10
350.4602393827089
 20
334.8070272085951
 30
0.0
 40
113.6142036501631
100
AcDbArc
 50
273.4638095767214
 51
274.5748570434592
  0
LINE
  5
F77
330
21
100
AcDbEntity
  8
截面层
100
AcDbLine
 10
348.8536241557406
 20
223.4426501109083
 30
0.0
 11
348.6041171117536
 21
228.7035281217753
 31
0.0
  0
ARC
  5
F78
330
21
100
AcDbEntity
  8
截面层
100
AcDbCircle
 10
359.7401208250349
 20
334.8070272083922
 30
0.0
 40
113.6142036499597
100
AcDbArc
 50
265.4251429565405
 51
266.5361904232802
  0
ARC
  5
F79
330
21
100
AcDbEntity
  8
截面层
100
AcDbCircle
 10
361.7930934897064
 20
228.7035281217753
 30
0.0
 40
0.1968503937007874
100
AcDbArc
 50
90.0
 51
180.0
  0
ARC
  5
F7A
330
21
100
AcDbEntity
  8
截面层
100
AcDbCircle
 10
348.4072667180529
 20
228.7035281217753
 30
0.0
 40
0.1968503937007874
100
AcDbArc
 50
0.000000000000007
 51
90.0
  0
LINE
  5
F7B
102
{ACAD_REACTORS
330
1198
102
}
330
21
100
AcDbEntity
  8
截面层
100
AcDbLine
 10
348.4072667180529
 20
228.9003785154761
 30
0.0
 11
347.6199797941554
 21
228.9003785154761
 31
0.0
  0
LINE
  5
F7C
330
21
100
AcDbEntity
  8
0
100
AcDbLine
 10
361.7930934897064
 20
228.9003785154761
 30
0.0
 11
348.4072667180529
 21
228.9003785154761
 31
0.0
  0
DIMENSION
  5
F7D
102
{ACAD_XDICTIONARY
360
F7E
102
}
102
{ACAD_REACTORS
330
F7F
102
}
330
21
100
AcDbEntity
  8
标注
100
AcDbDimension
  2
*D72
 10
366.7302160146274
 20
193.8383981966153
 30
0.0
 11
366.4935796406025
 21
193.542767287796
 31
0.0
 70
   164
 71
     5
 42
3.93700787401576
  3
副本Standard
100
AcDbRadialDimension
 15
364.2699522056698
 25
190.7647793213486
 35
0.0
 40
0.0
1001
ACAD
1000
DSTYLE
1002
{
1070
   288
1070
     1
1002
}
  0
DIMENSION
  5
F80
102
{ACAD_XDICTIONARY
360
F81
102
}
102
{ACAD_REACTORS
330
F82
102
}
330
21
100
AcDbEntity
  8
标注
100
AcDbDimension
  2
*D71
 10
357.8470897514437
 20
193.5786038516472
 30
0.0
 11
357.9162531986327
 21
193.5159729488488
 31
0.0
 70
   164
 71
     5
 42
3.543307086614106
  3
副本Standard
100
AcDbRadialDimension
 15
360.4735497712802
 25
191.2002151377802
 35
0.0
 40
0.0
1001
ACAD
1000
DSTYLE
1002
{
1070
   288
1070
     1
1002
}
  0
DIMENSION
  5
F83
102
{ACAD_XDICTIONARY
360
F84
102
}
102
{ACAD_REACTORS
330
F85
102
}
330
21
100
AcDbEntity
  8
标注
100
AcDbDimension
  2
*D78
 10
369.0924207390369
 20
201.8348112408891
 30
0.0
 11
366.5975196407251
 21
203.2108493728698
 31
0.0
 70
   164
 71
     5
 42
6.29921259842473
  3
副本Standard
100
AcDbRadialDimension
 15
363.5765415663144
 25
204.8770400804211
 35
0.0
 40
0.0
1001
ACAD
1000
DSTYLE
1002
{
1070
   288
1070
     1
1002
}
  0
DIMENSION
  5
F86
102
{ACAD_XDICTIONARY
360
F87
102
}
102
{ACAD_REACTORS
330
F88
102
}
330
21
100
AcDbEntity
  8
标注
100
AcDbDimension
  2
*D77
 10
371.6514758571471
 20
189.9013903225996
 30
0.0
 11
368.5404353017359
 21
204.4088373013299
 31
0.0
 70
   164
 71
     5
 42
18.50393700787451
  3
副本Standard
100
AcDbRadialDimension
 15
367.7716180974357
 25
207.9939962309754
 35
0.0
 40
0.0
1001
ACAD
1000
DSTYLE
1002
{
1070
   279
1070
     1
1070
   288
1070
     1
1002
}
  0
DIMENSION
  5
F89
330
21
100
AcDbEntity
  8
标注
100
AcDbDimension
  2
*D70
 10
384.1779549907172
 20
209.4053100857582
 30
0.0
 11
384.1779549907172
 21
211.2303100857582
 31
0.0
 70
    32
 71
     5
 42
0.9999827552845488
  3
副本Standard
100
AcDbAlignedDimension
 13
371.6514758571471
 23
208.4053273304736
 33
0.0
 14
374.2105309752573
 24
209.4053100857582
 34
0.0
 50
90.0
100
AcDbRotatedDimension
  0
DIMENSION
  5
F8A
330
21
100
AcDbEntity
  8
标注
100
AcDbDimension
  2
*D69
 10
345.1014135629433
 20
207.4369952141638
 30
0.0
 11
345.1014135629432
 21
209.2619952141639
 31
0.0
 70
    32
 71
     5
 42
0.9999999999999715
  3
副本Standard
100
AcDbAlignedDimension
 13
355.1160427862811
 23
206.4369952141638
 33
0.0
 14
352.1632868807694
 24
207.4369952141638
 34
0.0
 50
90.0
100
AcDbRotatedDimension
  0
DIMENSION
  5
F8B
102
{ACAD_XDICTIONARY
360
F8C
102
}
102
{ACAD_REACTORS
330
F8D
102
}
330
21
100
AcDbEntity
  8
标注
100
AcDbDimension
  2
*D76
 10
362.7932081406117
 20
197.8366047187521
 30
0.0
 11
365.8098748072784
 21
197.8366047187521
 31
0.0
 70
    32
 71
     5
 42
1.18110236220474
  3
副本Standard
100
AcDbAlignedDimension
 13
361.612105778407
 23
198.1692786787307
 33
0.0
 14
362.7932081406117
 24
198.1692786787307
 34
0.0
 50
180.0
100
AcDbRotatedDimension
  0
DIMENSION
  5
F8E
102
{ACAD_XDICTIONARY
360
F8F
102
}
102
{ACAD_REACTORS
330
F90
102
}
330
21
100
AcDbEntity
  8
标注
100
AcDbDimension
  2
*D75
 10
347.6199797941551
 20
186.3059484721581
 30
0.0
 11
345.7949797941551
 21
186.3059484721581
 31
0.0
 70
    32
 71
     5
 42
0.9999999999999431
  3
副本Standard
100
AcDbAlignedDimension
 13
348.619979794155
 23
198.1692786787307
 33
0.0
 14
347.6199797941551
 24
193.4446974092138
 34
0.0
 50
180.0
100
AcDbRotatedDimension
  0
CIRCLE
  5
F91
330
21
100
AcDbEntity
  8
0
100
AcDbCircle
 10
355.1160427862811
 20
201.1220345842426
 30
0.0
 40
1.771653543307085
  0
CIRCLE
  5
F92
330
21
100
AcDbEntity
  8
0
100
AcDbCircle
 10
355.115097285364
 20
201.1220345842426
 30
0.0
 40
2.165354330708659
  0
CIRCLE
  5
F93
330
21
100
AcDbEntity
  8
0
100
AcDbCircle
 10
355.115097285364
 20
201.1220345842426
 30
0.0
 40
2.283464566929133
  0
LINE
  5
F94
330
21
100
AcDbEntity
  8
中心线
 48
0.1
100
AcDbLine
 10
355.1160427862811
 20
205.0896597014275
 30
0.0
 11
355.1160427862811
 21
197.0411608378818
 31
0.0
  0
LINE
  5
F95
330
21
100
AcDbEntity
  8
中心线
 48
0.1
100
AcDbLine
 10
350.5885054156681
 20
201.1220345842426
 30
0.0
 11
359.6416891550604
 21
201.1220345842426
 31
0.0
  0
CIRCLE
  5
F96
330
21
100
AcDbEntity
  8
0
100
AcDbCircle
 10
371.6514758571472
 20
201.7124139446468
 30
0.0
 40
1.771653543307085
  0
CIRCLE
  5
F97
330
21
100
AcDbEntity
  8
0
100
AcDbCircle
 10
371.6505303562302
 20
201.7124139446468
 30
0.0
 40
2.165354330708659
  0
CIRCLE
  5
F98
330
21
100
AcDbEntity
  8
0
100
AcDbCircle
 10
371.6505303562302
 20
201.7124139446468
 30
0.0
 40
2.283464566929133
  0
LINE
  5
F99
330
21
100
AcDbEntity
  8
中心线
 48
0.1
100
AcDbLine
 10
371.6514758571472
 20
205.6800390618317
 30
0.0
 11
371.6514758571472
 21
197.631540198286
 31
0.0
  0
LINE
  5
F9A
330
21
100
AcDbEntity
  8
中心线
 48
0.1
100
AcDbLine
 10
367.1239384865342
 20
201.7124139446468
 30
0.0
 11
376.1771222259264
 21
201.7124139446468
 31
0.0
  0
DIMENSION
  5
F9B
102
{ACAD_XDICTIONARY
360
F9C
102
}
102
{ACAD_REACTORS
330
F9D
102
}
330
21
100
AcDbEntity
  8
标注
100
AcDbDimension
  2
*D86
 10
347.6199797941551
 20
184.0824627921467
 30
0.0
 11
364.5648616839188
 21
184.0824627921467
 31
0.0
 70
   160
 71
     5
 42
33.88976377952753
  3
副本Standard
100
AcDbAlignedDimension
 13
381.5097435736826
 23
193.8383981966153
 33
0.0
 14
347.6199797941551
 24
193.8383981966153
 34
0.0
 50
180.0
100
AcDbRotatedDimension
  0
DIMENSION
  5
F9E
102
{ACAD_XDICTIONARY
360
F9F
102
}
102
{ACAD_REACTORS
330
FA0
102
}
330
21
100
AcDbEntity
  8
标注
100
AcDbDimension
  2
*D85
 10
362.7932081406117
 20
186.2963542414809
 30
0.0
 11
371.6514758571472
 21
186.2963542414809
 31
0.0
 70
   160
 71
     5
 42
17.71653543307087
  3
副本Standard
100
AcDbAlignedDimension
 13
380.5097435736826
 23
193.8383981966153
 33
0.0
 14
362.7932081406117
 24
193.8383981966153
 34
0.0
 50
180.0
100
AcDbRotatedDimension
  0
DIMENSION
  5
FA1
102
{ACAD_XDICTIONARY
360
FA2
102
}
102
{ACAD_REACTORS
330
FA3
102
}
330
21
100
AcDbEntity
  8
标注
100
AcDbDimension
  2
*D84
 10
348.619979794155
 20
186.3059484721581
 30
0.0
 11
355.1160427862809
 21
186.3059484721581
 31
0.0
 70
    32
 71
     5
 42
12.99212598425197
  3
副本Standard
100
AcDbAlignedDimension
 13
361.612105778407
 23
198.1692786787308
 33
0.0
 14
348.619979794155
 24
198.1692786787309
 34
0.0
 50
180.0
100
AcDbRotatedDimension
  0
DIMENSION
  5
FA4
102
{ACAD_XDICTIONARY
360
FA5
102
}
102
{ACAD_REACTORS
330
FA6
102
}
330
21
100
AcDbEntity
  8
标注
100
AcDbDimension
  2
*D83
 10
342.9412734232876
 20
188.9013903225995
 30
0.0
 11
342.9412734232875
 21
198.1691927683817
 31
0.0
 70
    32
 71
     5
 42
18.53560489156425
  3
副本Standard
100
AcDbAlignedDimension
 13
352.1632868807694
 23
207.4369952141638
 33
0.0
 14
352.1632868807694
 24
188.9013903225995
 34
0.0
 50
90.0
100
AcDbRotatedDimension
  0
DIMENSION
  5
FA7
102
{ACAD_XDICTIONARY
360
FA8
102
}
102
{ACAD_REACTORS
330
FA9
102
}
330
21
100
AcDbEntity
  8
标注
100
AcDbDimension
  2
*D82
 10
345.1014135629433
 20
189.9015621432976
 30
0.0
 11
345.1014135629432
 21
198.1692786787308
 31
0.0
 70
    32
 71
     5
 42
16.53543307086619
  3
副本Standard
100
AcDbAlignedDimension
 13
355.1160427862811
 23
206.4369952141638
 33
0.0
 14
355.1160427862811
 24
189.9015621432976
 34
0.0
 50
90.0
100
AcDbRotatedDimension
  0
DIMENSION
  5
FAA
102
{ACAD_XDICTIONARY
360
FAB
102
}
102
{ACAD_REACTORS
330
FAC
102
}
330
21
100
AcDbEntity
  8
标注
100
AcDbDimension
  2
*D81
 10
386.5489336248434
 20
188.9013903225995
 30
0.0
 11
386.5489336248433
 21
199.1533502041789
 31
0.0
 70
    32
 71
     5
 42
20.50391976315856
  3
副本Standard
100
AcDbAlignedDimension
 13
374.2105309752573
 23
209.4053100857582
 33
0.0
 14
376.5727356996669
 24
188.9013903225995
 34
0.0
 50
90.0
100
AcDbRotatedDimension
  0
DIMENSION
  5
FAD
102
{ACAD_XDICTIONARY
360
FAE
102
}
102
{ACAD_REACTORS
330
FAF
102
}
330
21
100
AcDbEntity
  8
标注
100
AcDbDimension
  2
*D80
 10
384.1779549907172
 20
189.9013903225996
 30
0.0
 11
384.1779549907172
 21
199.1533588265366
 31
0.0
 70
    32
 71
     5
 42
18.50393700787401
  3
副本Standard
100
AcDbAlignedDimension
 13
371.6514758571471
 23
208.4053273304736
 33
0.0
 14
376.5727356996669
 24
189.9013903225996
 34
0.0
 50
90.0
100
AcDbRotatedDimension
  0
ARC
  5
FB0
330
21
100
AcDbEntity
  8
0
100
AcDbCircle
 10
374.2105309752573
 20
201.8348112408891
 30
0.0
 40
6.299212598425196
100
AcDbArc
 50
0.000000000000007
 51
77.89655112926855
  0
LINE
  5
FB1
102
{ACAD_REACTORS
330
FA0
102
}
330
21
100
AcDbEntity
  8
0
100
AcDbLine
 10
380.5097435736826
 20
193.8383981966153
 30
0.0
 11
380.5097435736826
 21
201.8348112408891
 31
0.0
  0
ARC
  5
FB2
102
{ACAD_REACTORS
330
FAF
330
F88
102
}
330
21
100
AcDbEntity
  8
0
100
AcDbCircle
 10
371.6514758571471
 20
189.9013903225996
 30
0.0
 40
18.50393700787401
100
AcDbArc
 50
77.89655112926855
 51
102.1034488707314
  0
ARC
  5
FB3
102
{ACAD_REACTORS
330
FAC
102
}
330
21
100
AcDbEntity
  8
0
100
AcDbCircle
 10
376.5727356996669
 20
193.8383981966153
 30
0.0
 40
4.937007874015748
100
AcDbArc
 50
270.0
 51
0.000000000000007
  0
ARC
  5
FB4
102
{ACAD_REACTORS
330
FAF
102
}
330
21
100
AcDbEntity
  8
0
100
AcDbCircle
 10
376.5727356996669
 20
193.8383981966153
 30
0.0
 40
3.937007874015747
100
AcDbArc
 50
270.0
 51
0.000000000000007
  0
ARC
  5
FB5
102
{ACAD_REACTORS
330
F85
102
}
330
21
100
AcDbEntity
  8
0
100
AcDbCircle
 10
369.0924207390369
 20
201.8348112408891
 30
0.0
 40
6.299212598425196
100
AcDbArc
 50
102.1034488707314
 51
180.0
  0
LINE
  5
FB6
330
21
100
AcDbEntity
  8
0
100
AcDbLine
 10
366.7302160146276
 20
189.9013903225996
 30
0.0
 11
376.5727356996669
 21
189.9013903225996
 31
0.0
  0
LINE
  5
FB7
102
{ACAD_REACTORS
330
FA0
330
F8D
102
}
330
21
100
AcDbEntity
  8
0
100
AcDbLine
 10
362.7932081406117
 20
201.8348112408891
 30
0.0
 11
362.7932081406117
 21
193.8383981966153
 31
0.0
  0
ARC
  5
FB8
102
{ACAD_REACTORS
330
F7F
102
}
330
21
100
AcDbEntity
  8
0
100
AcDbCircle
 10
366.7302160146276
 20
193.8383981966153
 30
0.0
 40
3.937007874015747
100
AcDbArc
 50
180.0
 51
270.0
  0
ARC
  5
FB9
102
{ACAD_REACTORS
330
F8D
102
}
330
21
100
AcDbEntity
  8
0
100
AcDbCircle
 10
310.4310034162022
 20
198.1692786787307
 30
0.0
 40
51.18110236220473
100
AcDbArc
 50
354.4700400459907
 51
0.000000000000007
  0
ARC
  5
FBA
102
{ACAD_REACTORS
330
F82
102
}
330
21
100
AcDbEntity
  8
0
100
AcDbCircle
 10
357.8470897514437
 20
193.5786038516473
 30
0.0
 40
3.543307086614173
100
AcDbArc
 50
275.6068707265318
 51
354.4700400459907
  0
ARC
  5
FBB
102
{ACAD_REACTORS
330
FA3
102
}
330
21
100
AcDbEntity
  8
0
100
AcDbCircle
 10
310.4310034162022
 20
198.1692786787308
 30
0.0
 40
51.18110236220473
100
AcDbArc
 50
0.000000000000007
 51
5.529959954009346
  0
ARC
  5
FBC
102
{ACAD_REACTORS
330
FA9
102
}
330
21
100
AcDbEntity
  8
0
100
AcDbCircle
 10
355.1160427862811
 20
221.3976251354237
 30
0.0
 40
31.49606299212599
100
AcDbArc
 50
270.0
 51
275.6068707265318
  0
ARC
  5
FBD
330
21
100
AcDbEntity
  8
0
100
AcDbCircle
 10
357.8470897514437
 20
202.7599535058142
 30
0.0
 40
3.543307086614173
100
AcDbArc
 50
5.529959954009346
 51
84.39312927346824
  0
ARC
  5
FBE
330
21
100
AcDbEntity
  8
0
100
AcDbCircle
 10
355.1160427862811
 20
221.3976251354237
 30
0.0
 40
31.49606299212599
100
AcDbArc
 50
264.3931292734682
 51
270.0
  0
ARC
  5
FBF
102
{ACAD_REACTORS
330
FA9
102
}
330
21
100
AcDbEntity
  8
0
100
AcDbCircle
 10
355.1160427862811
 20
174.9409322220379
 30
0.0
 40
31.49606299212599
100
AcDbArc
 50
84.39312927346824
 51
90.0
  0
ARC
  5
FC0
330
21
100
AcDbEntity
  8
0
100
AcDbCircle
 10
352.3849958211185
 20
193.5786038516473
 30
0.0
 40
3.543307086614173
100
AcDbArc
 50
185.5299599540094
 51
264.3931292734682
  0
ARC
  5
FC1
330
21
100
AcDbEntity
  8
0
100
AcDbCircle
 10
355.1160427862811
 20
174.9409322220379
 30
0.0
 40
31.49606299212599
100
AcDbArc
 50
90.0
 51
95.60687072653179
  0
ARC
  5
FC2
102
{ACAD_REACTORS
330
FA3
330
F90
102
}
330
21
100
AcDbEntity
  8
0
100
AcDbCircle
 10
399.8010821563598
 20
198.1692786787307
 30
0.0
 40
51.18110236220473
100
AcDbArc
 50
180.0
 51
185.5299599540094
  0
ARC
  5
FC3
330
21
100
AcDbEntity
  8
0
100
AcDbCircle
 10
352.3849958211185
 20
202.7599535058142
 30
0.0
 40
3.543307086614173
100
AcDbArc
 50
95.60687072653179
 51
174.4700400459906
  0
ARC
  5
FC4
330
21
100
AcDbEntity
  8
0
100
AcDbCircle
 10
399.8010821563598
 20
198.1692786787308
 30
0.0
 40
51.18110236220473
100
AcDbArc
 50
174.4700400459906
 51
180.0
  0
LINE
  5
FC5
102
{ACAD_REACTORS
330
F9D
102
}
330
21
100
AcDbEntity
  8
0
100
AcDbLine
 10
381.5097435736826
 20
202.1060974873329
 30
0.0
 11
381.5097435736826
 21
193.8383981966153
 31
0.0
  0
LINE
  5
FC6
102
{ACAD_REACTORS
330
FA6
102
}
330
21
100
AcDbEntity
  8
0
100
AcDbLine
 10
376.5727356996669
 20
188.9013903225995
 30
0.0
 11
352.1632868807694
 21
188.9013903225996
 31
0.0
  0
ARC
  5
FC7
102
{ACAD_REACTORS
330
FAC
102
}
330
21
100
AcDbEntity
  8
0
100
AcDbCircle
 10
374.2105309752573
 20
202.1060974873329
 30
0.0
 40
7.299212598425197
100
AcDbArc
 50
0.000000000000007
 51
90.0
  0
LINE
  5
FC8
330
21
100
AcDbEntity
  8
0
100
AcDbLine
 10
367.6426748789704
 20
209.4053100857582
 30
0.0
 11
374.2105309752573
 21
209.4053100857582
 31
0.0
  0
LINE
  5
FC9
330
21
100
AcDbEntity
  8
0
100
AcDbLine
 10
367.6426748789704
 20
209.4053100857582
 30
0.0
 11
362.3394928694937
 21
207.4369952141639
 31
0.0
  0
ARC
  5
FCA
102
{ACAD_REACTORS
330
FA6
330
F90
102
}
330
21
100
AcDbEntity
  8
0
100
AcDbCircle
 10
352.1632868807694
 20
193.4446974092138
 30
0.0
 40
4.543307086614173
100
AcDbArc
 50
180.0
 51
270.0
  0
ARC
  5
FCB
102
{ACAD_REACTORS
330
FA6
102
}
330
21
100
AcDbEntity
  8
0
100
AcDbCircle
 10
352.1632868807694
 20
202.8936881275497
 30
0.0
 40
4.543307086614173
100
AcDbArc
 50
90.0
 51
180.0
  0
LINE
  5
FCC
102
{ACAD_REACTORS
330
F9D
102
}
330
21
100
AcDbEntity
  8
0
100
AcDbLine
 10
347.6199797941551
 20
202.8936881275497
 30
0.0
 11
347.6199797941551
 21
193.4446974092138
 31
0.0
  0
LINE
  5
FCD
330
21
100
AcDbEntity
  8
0
100
AcDbLine
 10
352.1632868807694
 20
207.4369952141639
 30
0.0
 11
362.3394928694937
 21
207.4369952141639
 31
0.0
  0
ARC
  5
FCE
330
21
100
AcDbEntity
  8
0
100
AcDbCircle
 10
370.5751083854644
 20
161.8028491840986
 30
0.0
 40
6.299212598425196
100
AcDbArc
 50
130.4515059688917
 51
180.0
  0
ARC
  5
FCF
330
21
100
AcDbEntity
  8
虚线
 62
    11
 48
0.15
370
    35
100
AcDbCircle
 10
366.0621588484139
 20
166.9550331573734
 30
0.0
 40
0.8
100
AcDbArc
 50
270.0
 51
311.2160717244209
  0
ARC
  5
FD0
330
21
100
AcDbEntity
  8
截面层
 62
     1
 48
0.2
370
    35
100
AcDbCircle
 10
365.9691092716423
 20
167.2050331573734
 30
0.0
 40
0.8
100
AcDbArc
 50
270.0000000000021
 51
310.4515059688913
  0
ARC
  5
FD1
330
21
100
AcDbEntity
  8
虚线
 62
     3
 48
0.3
370
    35
100
AcDbCircle
 10
365.8779026044592
 20
167.4550331573734
 30
0.0
 40
0.8
100
AcDbArc
 50
270.0
 51
309.7280258396831
  0
LINE
  5
FD2
330
21
100
AcDbEntity
  8
虚线
 62
    11
 48
0.15
370
    35
100
AcDbLine
 10
356.5987304327084
 20
166.1550331573734
 30
0.0
 11
366.0621588484139
 21
166.1550331573733
 31
0.0
  0
LINE
  5
FD3
330
21
100
AcDbEntity
  8
截面层
 62
     1
 48
0.2
370
    35
100
AcDbLine
 10
356.5987304327084
 20
166.4050331573734
 30
0.0
 11
365.9691092716424
 21
166.4050331573734
 31
0.0
  0
LINE
  5
FD4
330
21
100
AcDbEntity
  8
虚线
 62
     3
 48
0.3
370
    35
100
AcDbLine
 10
356.5987304327084
 20
166.6550331573734
 30
0.0
 11
365.8779026044592
 21
166.6550331573733
 31
0.0
  0
ARC
  5
FD5
330
21
100
AcDbEntity
  8
虚线
 62
    11
 48
0.15
370
    35
100
AcDbCircle
 10
356.5987304327084
 20
181.3656630786332
 30
0.0
 40
31.24606299212599
100
AcDbArc
 50
264.3931292734682
 51
270.0
  0
ARC
  5
FD6
330
21
100
AcDbEntity
  8
虚线
 62
     3
 48
0.3
370
    35
100
AcDbCircle
 10
356.5987304327084
 20
181.3656630786332
 30
0.0
 40
31.74606299212598
100
AcDbArc
 50
264.3931292734682
 51
270.0
  0
ARC
  5
FD7
330
21
100
AcDbEntity
  8
虚线
 62
    11
 48
0.15
370
    35
100
AcDbCircle
 10
353.8676834675458
 20
153.5466417948568
 30
0.0
 40
3.293307086614173
100
AcDbArc
 50
185.5299599540095
 51
264.3931292734682
  0
ARC
  5
FD8
330
21
100
AcDbEntity
  8
虚线
 62
     3
 48
0.3
370
    35
100
AcDbCircle
 10
353.8676834675458
 20
153.5466417948568
 30
0.0
 40
3.793307086614173
100
AcDbArc
 50
185.5299599540095
 51
264.3931292734682
  0
ARC
  5
FD9
330
21
100
AcDbEntity
  8
虚线
 62
    11
 48
0.15
370
    35
100
AcDbCircle
 10
401.2837698027871
 20
158.1373166219402
 30
0.0
 40
50.93110236220472
100
AcDbArc
 50
180.0
 51
185.5299599540095
  0
ARC
  5
FDA
330
21
100
AcDbEntity
  8
虚线
 62
     3
 48
0.3
370
    35
100
AcDbCircle
 10
401.2837698027871
 20
158.1373166219402
 30
0.0
 40
51.43110236220472
100
AcDbArc
 50
180.0
 51
185.5299599540095
  0
ARC
  5
FDB
330
21
100
AcDbEntity
  8
虚线
 62
    11
 48
0.15
370
    35
100
AcDbCircle
 10
401.2837698027871
 20
158.1373166219403
 30
0.0
 40
50.93110236220472
100
AcDbArc
 50
174.4700400459905
 51
180.0
  0
ARC
  5
FDC
330
21
100
AcDbEntity
  8
虚线
 62
     3
 48
0.3
370
    35
100
AcDbCircle
 10
401.2837698027871
 20
158.1373166219403
 30
0.0
 40
51.43110236220472
100
AcDbArc
 50
174.4700400459905
 51
180.0
  0
ARC
  5
FDD
330
21
100
AcDbEntity
  8
虚线
 62
    11
 48
0.15
370
    35
100
AcDbCircle
 10
353.8676834675458
 20
162.7279914490237
 30
0.0
 40
3.293307086614173
100
AcDbArc
 50
95.60687072653179
 51
174.4700400459905
  0
ARC
  5
FDE
330
21
100
AcDbEntity
  8
虚线
 62
     3
 48
0.3
370
    35
100
AcDbCircle
 10
353.8676834675458
 20
162.7279914490237
 30
0.0
 40
3.793307086614173
100
AcDbArc
 50
95.60687072653179
 51
174.4700400459905
  0
ARC
  5
FDF
330
21
100
AcDbEntity
  8
虚线
 62
    11
 48
0.15
370
    35
100
AcDbCircle
 10
356.5987304327084
 20
134.9089701652474
 30
0.0
 40
31.24606299212599
100
AcDbArc
 50
90.0
 51
95.60687072653179
  0
ARC
  5
FE0
330
21
100
AcDbEntity
  8
虚线
 62
     3
 48
0.3
370
    35
100
AcDbCircle
 10
356.5987304327084
 20
134.9089701652474
 30
0.0
 40
31.74606299212598
100
AcDbArc
 50
90.0
 51
95.60687072653179
  0
ARC
  5
FE1
330
21
100
AcDbEntity
  8
虚线
 62
    11
 48
0.15
370
    35
100
AcDbCircle
 10
370.5751083854643
 20
161.8028491840986
 30
0.0
 40
6.049212598425196
100
AcDbArc
 50
102.1034488707314
 51
131.2160717244208
  0
ARC
  5
FE2
330
21
100
AcDbEntity
  8
虚线
 62
     3
 48
0.3
370
    35
100
AcDbCircle
 10
370.5751083854643
 20
161.8028491840986
 30
0.0
 40
6.549212598425196
100
AcDbArc
 50
102.1034488707314
 51
129.7280258396838
  0
ARC
  5
FE3
330
21
100
AcDbEntity
  8
虚线
 62
    11
 48
0.15
370
    35
100
AcDbCircle
 10
373.1341635035745
 20
149.8694282658091
 30
0.0
 40
18.25393700787401
100
AcDbArc
 50
77.89655112926855
 51
102.1034488707314
  0
ARC
  5
FE4
330
21
100
AcDbEntity
  8
虚线
 62
     3
 48
0.3
370
    35
100
AcDbCircle
 10
373.1341635035745
 20
149.8694282658091
 30
0.0
 40
18.75393700787401
100
AcDbArc
 50
77.89655112926855
 51
102.1034488707314
  0
ARC
  5
FE5
330
21
100
AcDbEntity
  8
虚线
 62
    11
 48
0.15
370
    35
100
AcDbCircle
 10
375.6932186216848
 20
161.8028491840986
 30
0.0
 40
6.049212598425196
100
AcDbArc
 50
0.000000000000007
 51
77.89655112926855
  0
ARC
  5
FE6
330
21
100
AcDbEntity
  8
虚线
 62
     3
 48
0.3
370
    35
100
AcDbCircle
 10
375.6932186216848
 20
161.8028491840986
 30
0.0
 40
6.549212598425196
100
AcDbArc
 50
0.000000000000007
 51
77.89655112926855
  0
LINE
  5
FE7
330
21
100
AcDbEntity
  8
虚线
 62
    11
 48
0.15
370
    35
100
AcDbLine
 10
381.74243122011
 20
153.8064361398248
 30
0.0
 11
381.74243122011
 21
161.8028491840986
 31
0.0
  0
LINE
  5
FE8
330
21
100
AcDbEntity
  8
虚线
 62
     3
 48
0.3
370
    35
100
AcDbLine
 10
382.24243122011
 20
153.8064361398248
 30
0.0
 11
382.24243122011
 21
161.8028491840986
 31
0.0
  0
ARC
  5
FE9
330
21
100
AcDbEntity
  8
虚线
 62
     3
 48
0.3
370
    35
100
AcDbCircle
 10
378.0554233460942
 20
153.8064361398248
 30
0.0
 40
4.187007874015748
100
AcDbArc
 50
270.0
 51
0.000000000000007
  0
LINE
  5
FEA
330
21
100
AcDbEntity
  8
虚线
 62
     3
 48
0.3
370
    35
100
AcDbLine
 10
356.5982607892552
 20
149.6196000899811
 30
0.0
 11
378.0554233460942
 21
149.6194282658091
 31
0.0
  0
ARC
  5
FEB
330
21
100
AcDbEntity
  8
虚线
 62
    11
 48
0.15
370
    35
100
AcDbCircle
 10
378.0554233460942
 20
153.8064361398248
 30
0.0
 40
3.687007874015747
100
AcDbArc
 50
270.0
 51
0.000000000000007
  0
LINE
  5
FEC
330
21
100
AcDbEntity
  8
虚线
 62
    11
 48
0.15
370
    35
100
AcDbLine
 10
356.5987304327084
 20
150.1196000865071
 30
0.0
 11
378.0554233460942
 21
150.1194282658091
 31
0.0
  0
LINE
  5
FED
330
21
100
AcDbEntity
  8
0
100
AcDbLine
 10
353.6459745271967
 20
167.4050331573734
 30
0.0
 11
363.8221805159211
 21
167.4050331573734
 31
0.0
  0
LINE
  5
FEE
330
21
100
AcDbEntity
  8
0
100
AcDbLine
 10
349.1026674405824
 20
162.8617260707591
 30
0.0
 11
349.1026674405824
 21
153.4127353524233
 31
0.0
  0
ARC
  5
FEF
330
21
100
AcDbEntity
  8
0
100
AcDbCircle
 10
353.6459745271967
 20
162.8617260707591
 30
0.0
 40
4.543307086614173
100
AcDbArc
 50
90.0
 51
180.0
  0
ARC
  5
FF0
330
21
100
AcDbEntity
  8
0
100
AcDbCircle
 10
353.6459745271967
 20
153.4127353524233
 30
0.0
 40
4.543307086614173
100
AcDbArc
 50
180.0
 51
270.0
  0
LINE
  5
FF1
330
21
100
AcDbEntity
  8
0
100
AcDbLine
 10
369.1253625253978
 20
169.3733480289677
 30
0.0
 11
363.8221805159211
 21
167.4050331573734
 31
0.0
  0
LINE
  5
FF2
330
21
100
AcDbEntity
  8
0
100
AcDbLine
 10
369.1253625253978
 20
169.3733480289677
 30
0.0
 11
375.6932186216848
 21
169.3733480289677
 31
0.0
  0
ARC
  5
FF3
330
21
100
AcDbEntity
  8
0
100
AcDbCircle
 10
375.6932186216848
 20
162.0741354305425
 30
0.0
 40
7.299212598425197
100
AcDbArc
 50
0.000000000000007
 51
90.0
  0
LINE
  5
FF4
330
21
100
AcDbEntity
  8
0
100
AcDbLine
 10
378.0554233460942
 20
148.869428265809
 30
0.0
 11
353.6459745271967
 21
148.8694282658091
 31
0.0
  0
LINE
  5
FF5
330
21
100
AcDbEntity
  8
0
100
AcDbLine
 10
382.99243122011
 20
162.0741354305425
 30
0.0
 11
382.99243122011
 21
153.8064361398249
 31
0.0
  0
ARC
  5
FF6
330
21
100
AcDbEntity
  8
截面层
 62
     1
 48
0.2
370
    35
100
AcDbCircle
 10
401.2837698027871
 20
158.1373166219403
 30
0.0
 40
51.18110236220473
100
AcDbArc
 50
174.4700400459905
 51
180.0
  0
ARC
  5
FF7
330
21
100
AcDbEntity
  8
截面层
 62
     1
 48
0.2
370
    35
100
AcDbCircle
 10
353.8676834675458
 20
162.7279914490237
 30
0.0
 40
3.543307086614173
100
AcDbArc
 50
95.60687072653179
 51
174.4700400459905
  0
ARC
  5
FF8
330
21
100
AcDbEntity
  8
截面层
 62
     1
 48
0.2
370
    35
100
AcDbCircle
 10
401.2837698027871
 20
158.1373166219402
 30
0.0
 40
51.18110236220473
100
AcDbArc
 50
180.0
 51
185.5299599540095
  0
ARC
  5
FF9
330
21
100
AcDbEntity
  8
截面层
 62
     1
 48
0.2
370
    35
100
AcDbCircle
 10
356.5987304327084
 20
134.9089701652474
 30
0.0
 40
31.49606299212599
100
AcDbArc
 50
90.0
 51
95.60687072653179
  0
ARC
  5
FFA
330
21
100
AcDbEntity
  8
截面层
 62
     1
 48
0.2
370
    35
100
AcDbCircle
 10
353.8676834675458
 20
153.5466417948568
 30
0.0
 40
3.543307086614173
100
AcDbArc
 50
185.5299599540095
 51
264.3931292734682
  0
ARC
  5
FFB
330
21
100
AcDbEntity
  8
0
100
AcDbCircle
 10
356.5987304327084
 20
134.9089701652474
 30
0.0
 40
31.49606299212599
100
AcDbArc
 50
84.39312927346824
 51
90.0
  0
ARC
  5
FFC
330
21
100
AcDbEntity
  8
截面层
 62
     1
 48
0.2
370
    35
100
AcDbCircle
 10
356.5987304327084
 20
181.3656630786332
 30
0.0
 40
31.49606299212599
100
AcDbArc
 50
264.3931292734682
 51
270.0
  0
ARC
  5
FFD
330
21
100
AcDbEntity
  8
0
100
AcDbCircle
 10
359.329777397871
 20
162.7279914490237
 30
0.0
 40
3.543307086614173
100
AcDbArc
 50
5.529959954009498
 51
84.39312927346824
  0
ARC
  5
FFE
330
21
100
AcDbEntity
  8
0
100
AcDbCircle
 10
356.5987304327084
 20
181.3656630786332
 30
0.0
 40
31.49606299212599
100
AcDbArc
 50
270.0
 51
275.6068707265318
  0
ARC
  5
FFF
330
21
100
AcDbEntity
  8
0
100
AcDbCircle
 10
311.9136910626296
 20
158.1373166219403
 30
0.0
 40
51.18110236220473
100
AcDbArc
 50
0.000000000000007
 51
5.529959954009498
  0
ARC
  5
1000
330
21
100
AcDbEntity
  8
0
100
AcDbCircle
 10
359.329777397871
 20
153.5466417948568
 30
0.0
 40
3.543307086614173
100
AcDbArc
 50
275.6068707265318
 51
354.4700400459905
  0
ARC
  5
1001
330
21
100
AcDbEntity
  8
0
100
AcDbCircle
 10
311.9136910626296
 20
158.1373166219402
 30
0.0
 40
51.18110236220473
100
AcDbArc
 50
354.4700400459905
 51
0.000000000000007
  0
ARC
  5
1002
330
21
100
AcDbEntity
  8
0
100
AcDbCircle
 10
368.2129036610549
 20
153.8064361398248
 30
0.0
 40
3.937007874015747
100
AcDbArc
 50
180.0
 51
270.0
  0
LINE
  5
1003
330
21
100
AcDbEntity
  8
0
100
AcDbLine
 10
364.2758957870392
 20
161.8028491840986
 30
0.0
 11
364.2758957870392
 21
153.8064361398248
 31
0.0
  0
LINE
  5
1004
330
21
100
AcDbEntity
  8
截面层
 62
     1
 48
0.2
370
    35
100
AcDbLine
 10
356.5987304327084
 20
149.8696000865072
 30
0.0
 11
378.0554233460942
 21
149.8694282658091
 31
0.0
  0
ARC
  5
1005
330
21
100
AcDbEntity
  8
截面层
 62
     1
 48
0.2
370
    35
100
AcDbCircle
 10
370.5751083854643
 20
161.8028491840986
 30
0.0
 40
6.299212598425196
100
AcDbArc
 50
102.1034488707314
 51
130.4515059688909
  0
ARC
  5
1006
330
21
100
AcDbEntity
  8
截面层
 62
     1
 48
0.2
370
    35
100
AcDbCircle
 10
378.0554233460942
 20
153.8064361398248
 30
0.0
 40
3.937007874015747
100
AcDbArc
 50
270.0
 51
0.000000000000007
  0
ARC
  5
1007
330
21
100
AcDbEntity
  8
0
100
AcDbCircle
 10
378.0554233460942
 20
153.8064361398248
 30
0.0
 40
4.937007874015748
100
AcDbArc
 50
270.0
 51
0.000000000000007
  0
ARC
  5
1008
330
21
100
AcDbEntity
  8
截面层
 62
     1
 48
0.2
370
    35
100
AcDbCircle
 10
373.1341635035745
 20
149.8694282658091
 30
0.0
 40
18.50393700787401
100
AcDbArc
 50
77.89655112926855
 51
102.1034488707314
  0
LINE
  5
1009
330
21
100
AcDbEntity
  8
截面层
 62
     1
 48
0.2
370
    35
100
AcDbLine
 10
381.99243122011
 20
153.8064361398248
 30
0.0
 11
381.99243122011
 21
161.8028491840986
 31
0.0
  0
ARC
  5
100A
330
21
100
AcDbEntity
  8
截面层
 62
     1
 48
0.2
370
    35
100
AcDbCircle
 10
375.6932186216848
 20
161.8028491840986
 30
0.0
 40
6.299212598425196
100
AcDbArc
 50
0.000000000000007
 51
77.89655112926855
  0
LINE
  5
100B
330
21
100
AcDbEntity
  8
中心线
 48
0.1
100
AcDbLine
 10
368.6066261329616
 20
161.6804518878564
 30
0.0
 11
377.6598098723539
 21
161.6804518878564
 31
0.0
  0
LINE
  5
100C
330
21
100
AcDbEntity
  8
中心线
 48
0.1
100
AcDbLine
 10
373.1341635035745
 20
165.6480770050412
 30
0.0
 11
373.1341635035745
 21
157.5995781414956
 31
0.0
  0
CIRCLE
  5
100D
330
21
100
AcDbEntity
  8
0
100
AcDbCircle
 10
373.1332180026575
 20
161.6804518878564
 30
0.0
 40
2.283464566929133
  0
CIRCLE
  5
100E
330
21
100
AcDbEntity
  8
0
100
AcDbCircle
 10
373.1332180026575
 20
161.6804518878564
 30
0.0
 40
2.165354330708659
  0
CIRCLE
  5
100F
330
21
100
AcDbEntity
  8
0
100
AcDbCircle
 10
373.1341635035745
 20
161.6804518878564
 30
0.0
 40
1.771653543307085
  0
LINE
  5
1010
330
21
100
AcDbEntity
  8
中心线
 48
0.1
100
AcDbLine
 10
352.0711930620953
 20
161.0900725274521
 30
0.0
 11
361.1243768014877
 21
161.0900725274521
 31
0.0
  0
LINE
  5
1011
330
21
100
AcDbEntity
  8
中心线
 48
0.1
100
AcDbLine
 10
356.5987304327084
 20
165.057697644637
 30
0.0
 11
356.5987304327084
 21
157.0091987810913
 31
0.0
  0
CIRCLE
  5
1012
330
21
100
AcDbEntity
  8
0
100
AcDbCircle
 10
356.5977849317913
 20
161.0900725274521
 30
0.0
 40
2.283464566929133
  0
CIRCLE
  5
1013
330
21
100
AcDbEntity
  8
0
100
AcDbCircle
 10
356.5977849317913
 20
161.0900725274521
 30
0.0
 40
2.165354330708659
  0
CIRCLE
  5
1014
330
21
100
AcDbEntity
  8
0
100
AcDbCircle
 10
356.5987304327084
 20
161.0900725274521
 30
0.0
 40
1.771653543307085
  0
ARC
  5
1015
330
21
100
AcDbEntity
  8
虚线
 62
     3
 48
0.3
370
    35
100
AcDbCircle
 10
375.8401301991922
 20
116.0403512307848
 30
0.0
 40
4.187007874015748
100
AcDbArc
 50
270.0
 51
0.000000000000007
  0
LINE
  5
1016
330
21
100
AcDbEntity
  8
虚线
 62
     3
 48
0.3
370
    35
100
AcDbLine
 10
380.027138073208
 20
116.0403512307848
 30
0.0
 11
380.027138073208
 21
124.0367642750586
 31
0.0
  0
ARC
  5
1017
330
21
100
AcDbEntity
  8
虚线
 62
     3
 48
0.3
370
    35
100
AcDbCircle
 10
373.4779254747828
 20
124.0367642750586
 30
0.0
 40
6.549212598425196
100
AcDbArc
 50
0.000000000000007
 51
77.89655112926872
  0
ARC
  5
1018
330
21
100
AcDbEntity
  8
虚线
 62
     3
 48
0.3
370
    35
100
AcDbCircle
 10
370.9188703566725
 20
112.1033433567691
 30
0.0
 40
18.75393700787401
100
AcDbArc
 50
77.89655112926872
 51
102.1034488707313
  0
ARC
  5
1019
330
21
100
AcDbEntity
  8
虚线
 62
     3
 48
0.3
370
    35
100
AcDbCircle
 10
368.3598152385623
 20
124.0367642750586
 30
0.0
 40
6.549212598425196
100
AcDbArc
 50
102.1034488707313
 51
129.7280258396845
  0
ARC
  5
101A
330
21
100
AcDbEntity
  8
虚线
 62
     3
 48
0.3
370
    35
100
AcDbCircle
 10
363.6626094575572
 20
129.6889482483333
 30
0.0
 40
0.8
100
AcDbArc
 50
270.0
 51
309.7280258396822
  0
LINE
  5
101B
330
21
100
AcDbEntity
  8
虚线
 62
     3
 48
0.3
370
    35
100
AcDbLine
 10
354.3834372858065
 20
128.8889482483333
 30
0.0
 11
363.6626094575572
 21
128.8889482483333
 31
0.0
  0
ARC
  5
101C
330
21
100
AcDbEntity
  8
虚线
 62
     3
 48
0.3
370
    35
100
AcDbCircle
 10
354.3834372858065
 20
97.14288525620736
 30
0.0
 40
31.74606299212598
100
AcDbArc
 50
90.0
 51
95.60687072653164
  0
ARC
  5
101D
330
21
100
AcDbEntity
  8
虚线
 62
     3
 48
0.3
370
    35
100
AcDbCircle
 10
351.6523903206439
 20
124.9619065399836
 30
0.0
 40
3.793307086614173
100
AcDbArc
 50
95.60687072653164
 51
174.4700400459905
  0
ARC
  5
101E
330
21
100
AcDbEntity
  8
虚线
 62
     3
 48
0.3
370
    35
100
AcDbCircle
 10
399.0684766558851
 20
120.3712317129003
 30
0.0
 40
51.43110236220472
100
AcDbArc
 50
174.4700400459905
 51
180.0
  0
ARC
  5
101F
330
21
100
AcDbEntity
  8
虚线
 62
     3
 48
0.3
370
    35
100
AcDbCircle
 10
399.0684766558851
 20
120.3712317129001
 30
0.0
 40
51.43110236220472
100
AcDbArc
 50
180.0
 51
185.5299599540095
  0
ARC
  5
1020
330
21
100
AcDbEntity
  8
虚线
 62
     3
 48
0.3
370
    35
100
AcDbCircle
 10
351.6523903206439
 20
115.7805568858168
 30
0.0
 40
3.793307086614173
100
AcDbArc
 50
185.5299599540095
 51
264.3931292734683
  0
ARC
  5
1021
330
21
100
AcDbEntity
  8
虚线
 62
     3
 48
0.3
370
    35
100
AcDbCircle
 10
354.3834372858065
 20
143.5995781695931
 30
0.0
 40
31.74606299212598
100
AcDbArc
 50
264.3931292734683
 51
270.0
  0
LINE
  5
1022
330
21
100
AcDbEntity
  8
虚线
 62
     3
 48
0.3
370
    35
100
AcDbLine
 10
354.3829676423533
 20
111.853515180941
 30
0.0
 11
375.8401301991922
 21
111.8533433567691
 31
0.0
  0
ARC
  5
1023
330
21
100
AcDbEntity
  8
截面层
 62
     1
 48
0.2
370
    35
100
AcDbCircle
 10
376.7810304464408
 20
86.28923245703825
 30
0.0
 40
3.937007874015747
100
AcDbArc
 50
270.0
 51
0.000000000000007
  0
LINE
  5
1024
330
21
100
AcDbEntity
  8
截面层
 62
     1
 48
0.2
370
    35
100
AcDbLine
 10
380.7180383204565
 20
86.28923245703825
 30
0.0
 11
380.7180383204565
 21
94.285645501312
 31
0.0
  0
ARC
  5
1025
330
21
100
AcDbEntity
  8
截面层
 62
     1
 48
0.2
370
    35
100
AcDbCircle
 10
374.4188257220313
 20
94.285645501312
 30
0.0
 40
6.299212598425196
100
AcDbArc
 50
0.000000000000007
 51
77.89655112926872
  0
ARC
  5
1026
330
21
100
AcDbEntity
  8
截面层
 62
     1
 48
0.2
370
    35
100
AcDbCircle
 10
371.8597706039211
 20
82.35222458302247
 30
0.0
 40
18.50393700787401
100
AcDbArc
 50
77.89655112926872
 51
102.1034488707313
  0
ARC
  5
1027
330
21
100
AcDbEntity
  8
截面层
 62
     1
 48
0.2
370
    35
100
AcDbCircle
 10
369.3007154858108
 20
94.285645501312
 30
0.0
 40
6.299212598425196
100
AcDbArc
 50
102.1034488707313
 51
130.4515059688908
  0
ARC
  5
1028
330
21
100
AcDbEntity
  8
截面层
 62
     1
 48
0.2
370
    35
100
AcDbCircle
 10
364.694716371989
 20
99.68782947458677
 30
0.0
 40
0.8
100
AcDbArc
 50
270.0000000000017
 51
310.4515059688908
  0
LINE
  5
1029
330
21
100
AcDbEntity
  8
截面层
 62
     1
 48
0.2
370
    35
100
AcDbLine
 10
355.3243375330552
 20
98.88782947458677
 30
0.0
 11
364.694716371989
 21
98.88782947458677
 31
0.0
  0
ARC
  5
102A
330
21
100
AcDbEntity
  8
截面层
 62
     1
 48
0.2
370
    35
100
AcDbCircle
 10
355.3243375330552
 20
67.39176648246078
 30
0.0
 40
31.49606299212599
100
AcDbArc
 50
90.0
 51
95.60687072653164
  0
ARC
  5
102B
330
21
100
AcDbEntity
  8
截面层
 62
     1
 48
0.2
370
    35
100
AcDbCircle
 10
352.5932905678926
 20
95.21078776623708
 30
0.0
 40
3.543307086614173
100
AcDbArc
 50
95.60687072653164
 51
174.4700400459905
  0
ARC
  5
102C
330
21
100
AcDbEntity
  8
截面层
 62
     1
 48
0.2
370
    35
100
AcDbCircle
 10
400.0093769031336
 20
90.62011293915372
 30
0.0
 40
51.18110236220473
100
AcDbArc
 50
174.4700400459905
 51
180.0
  0
ARC
  5
102D
330
21
100
AcDbEntity
  8
截面层
 62
     1
 48
0.2
370
    35
100
AcDbCircle
 10
400.0093769031336
 20
90.62011293915359
 30
0.0
 40
51.18110236220473
100
AcDbArc
 50
180.0
 51
185.5299599540095
  0
ARC
  5
102E
330
21
100
AcDbEntity
  8
截面层
 62
     1
 48
0.2
370
    35
100
AcDbCircle
 10
352.5932905678926
 20
86.02943811207024
 30
0.0
 40
3.543307086614173
100
AcDbArc
 50
185.5299599540095
 51
264.3931292734683
  0
ARC
  5
102F
330
21
100
AcDbEntity
  8
截面层
 62
     1
 48
0.2
370
    35
100
AcDbCircle
 10
355.3243375330552
 20
113.8484593958465
 30
0.0
 40
31.49606299212599
100
AcDbArc
 50
264.3931292734683
 51
270.0
  0
LINE
  5
1030
330
21
100
AcDbEntity
  8
截面层
 62
     1
 48
0.2
370
    35
100
AcDbLine
 10
355.3243375330552
 20
82.35239640372055
 30
0.0
 11
376.7810304464408
 21
82.35222458302247
 31
0.0
  0
ARC
  5
1031
330
21
100
AcDbEntity
  8
虚线
 62
    11
 48
0.15
370
    35
100
AcDbCircle
 10
376.8613216625825
 20
56.26787293791291
 30
0.0
 40
3.687007874015747
100
AcDbArc
 50
270.0
 51
0.000000000000007
  0
LINE
  5
1032
330
21
100
AcDbEntity
  8
虚线
 62
    11
 48
0.15
370
    35
100
AcDbLine
 10
380.5483295365982
 20
56.26787293791291
 30
0.0
 11
380.5483295365982
 21
64.26428598218669
 31
0.0
  0
ARC
  5
1033
330
21
100
AcDbEntity
  8
虚线
 62
    11
 48
0.15
370
    35
100
AcDbCircle
 10
374.499116938173
 20
64.26428598218669
 30
0.0
 40
6.049212598425196
100
AcDbArc
 50
0.000000000000007
 51
77.89655112926872
  0
ARC
  5
1034
330
21
100
AcDbEntity
  8
虚线
 62
    11
 48
0.15
370
    35
100
AcDbCircle
 10
371.9400618200627
 20
52.33086506389715
 30
0.0
 40
18.25393700787401
100
AcDbArc
 50
77.89655112926872
 51
102.1034488707313
  0
ARC
  5
1035
330
21
100
AcDbEntity
  8
虚线
 62
    11
 48
0.15
370
    35
100
AcDbCircle
 10
364.8680571649022
 20
69.41646995546148
 30
0.0
 40
0.8
100
AcDbArc
 50
270.0
 51
311.2160717244216
  0
ARC
  5
1036
330
21
100
AcDbEntity
  8
虚线
 62
    11
 48
0.15
370
    35
100
AcDbCircle
 10
369.3810067019525
 20
64.26428598218669
 30
0.0
 40
6.049212598425196
100
AcDbArc
 50
102.1034488707313
 51
131.2160717244215
  0
LINE
  5
1037
330
21
100
AcDbEntity
  8
虚线
 62
    11
 48
0.15
370
    35
100
AcDbLine
 10
355.4046287491967
 20
68.61646995546144
 30
0.0
 11
364.8680571649022
 21
68.61646995546141
 31
0.0
  0
ARC
  5
1038
330
21
100
AcDbEntity
  8
虚线
 62
    11
 48
0.15
370
    35
100
AcDbCircle
 10
355.4046287491967
 20
37.37040696333546
 30
0.0
 40
31.24606299212599
100
AcDbArc
 50
90.0
 51
95.60687072653164
  0
ARC
  5
1039
330
21
100
AcDbEntity
  8
虚线
 62
    11
 48
0.15
370
    35
100
AcDbCircle
 10
352.6735817840341
 20
65.18942824711174
 30
0.0
 40
3.293307086614173
100
AcDbArc
 50
95.60687072653164
 51
174.4700400459905
  0
ARC
  5
103A
330
21
100
AcDbEntity
  8
虚线
 62
    11
 48
0.15
370
    35
100
AcDbCircle
 10
400.0896681192752
 20
60.5987534200284
 30
0.0
 40
50.93110236220472
100
AcDbArc
 50
174.4700400459905
 51
180.0
  0
ARC
  5
103B
330
21
100
AcDbEntity
  8
虚线
 62
    11
 48
0.15
370
    35
100
AcDbCircle
 10
400.0896681192752
 20
60.59875342002825
 30
0.0
 40
50.93110236220472
100
AcDbArc
 50
180.0
 51
185.5299599540095
  0
ARC
  5
103C
330
21
100
AcDbEntity
  8
虚线
 62
    11
 48
0.15
370
    35
100
AcDbCircle
 10
352.6735817840341
 20
56.00807859294491
 30
0.0
 40
3.293307086614173
100
AcDbArc
 50
185.5299599540095
 51
264.3931292734683
  0
ARC
  5
103D
330
21
100
AcDbEntity
  8
虚线
 62
    11
 48
0.15
370
    35
100
AcDbCircle
 10
355.4046287491967
 20
83.82709987672123
 30
0.0
 40
31.24606299212599
100
AcDbArc
 50
264.3931292734683
 51
270.0
  0
LINE
  5
103E
330
21
100
AcDbEntity
  8
虚线
 62
    11
 48
0.15
370
    35
100
AcDbLine
 10
355.4046287491967
 20
52.58103688459525
 30
0.0
 11
376.8613216625825
 21
52.58086506389715
 31
0.0
  0
DIMENSION
  5
117F
102
{ACAD_XDICTIONARY
360
118D
102
}
102
{ACAD_REACTORS
330
1198
102
}
330
21
100
AcDbEntity
  8
标注
100
AcDbDimension
  2
*D87
 10
345.4275482128681
 20
221.4003785154761
 30
0.0
 11
345.4275482128681
 21
225.1503785154762
 31
0.0
 70
    32
 71
     5
 42
7.5
  3
副本Standard
100
AcDbAlignedDimension
 13
347.6199797941554
 23
228.9003785154761
 33
0.0
 14
353.4653535902293
 24
221.4003785154761
 34
0.0
 50
90.0
100
AcDbRotatedDimension
  0
ENDSEC
  0
SECTION
  2
OBJECTS
  0
DICTIONARY
  5
C
330
0
100
AcDbDictionary
281
     1
  3
ACAD_COLOR
350
1C
  3
ACAD_GROUP
350
D
  3
ACAD_LAYOUT
350
1A
  3
ACAD_MATERIAL
350
1B
  3
ACAD_MLEADERSTYLE
350
1177
  3
ACAD_MLINESTYLE
350
17
  3
ACAD_PLOTSETTINGS
350
19
  3
ACAD_PLOTSTYLENAME
350
E
  3
ACAD_SCALELIST
350
1155
  3
ACAD_TABLESTYLE
350
1153
  3
ACAD_VISUALSTYLE
350
1142
  3
ACDB_RECOMPOSE_DATA
350
11AD
  3
AcDbVariableDictionary
350
11A3
  3
DWGPROPS
350
120E
  3
lxx_dict
350
117D
  0
DICTIONARY
  5
F7
330
2
100
AcDbDictionary
280
     1
281
     1
  3
ACAD_LAYERSTATES
360
F8
  0
DICTIONARY
  5
1199
330
10
100
AcDbDictionary
280
     1
281
     1
  3
ADSK_XREC_LAYER_RECONCILED
360
119A
  0
DICTIONARY
  5
119B
330
EF
100
AcDbDictionary
280
     1
281
     1
  3
ADSK_XREC_LAYER_RECONCILED
360
119C
  0
DICTIONARY
  5
119D
330
F0
100
AcDbDictionary
280
     1
281
     1
  3
ADSK_XREC_LAYER_RECONCILED
360
119E
  0
DICTIONARY
  5
119F
330
F2
100
AcDbDictionary
280
     1
281
     1
  3
ADSK_XREC_LAYER_RECONCILED
360
11A0
  0
DICTIONARY
  5
11A1
330
F3
100
AcDbDictionary
280
     1
281
     1
  3
ADSK_XREC_LAYER_RECONCILED
360
11A2
  0
DICTIONARY
  5
F50
330
F4F
100
AcDbDictionary
280
     1
281
     1
  3
ACAD_DIMASSOC
360
F51
  0
DICTIONARY
  5
F53
330
F52
100
AcDbDictionary
280
     1
281
     1
  3
ACAD_DIMASSOC
360
F54
  0
DICTIONARY
  5
F68
330
F67
100
AcDbDictionary
280
     1
281
     1
  3
ACAD_DIMASSOC
360
F69
  0
DICTIONARY
  5
F7E
330
F7D
100
AcDbDictionary
280
     1
281
     1
  3
ACAD_DIMASSOC
360
F7F
  0
DICTIONARY
  5
F81
330
F80
100
AcDbDictionary
280
     1
281
     1
  3
ACAD_DIMASSOC
360
F82
  0
DICTIONARY
  5
F84
330
F83
100
AcDbDictionary
280
     1
281
     1
  3
ACAD_DIMASSOC
360
F85
  0
DICTIONARY
  5
F87
330
F86
100
AcDbDictionary
280
     1
281
     1
  3
ACAD_DIMASSOC
360
F88
  0
DICTIONARY
  5
F8C
330
F8B
100
AcDbDictionary
280
     1
281
     1
  3
ACAD_DIMASSOC
360
F8D
  0
DICTIONARY
  5
F8F
330
F8E
100
AcDbDictionary
280
     1
281
     1
  3
ACAD_DIMASSOC
360
F90
  0
DICTIONARY
  5
F9C
330
F9B
100
AcDbDictionary
280
     1
281
     1
  3
ACAD_DIMASSOC
360
F9D
  0
DICTIONARY
  5
F9F
330
F9E
100
AcDbDictionary
280
     1
281
     1
  3
ACAD_DIMASSOC
360
FA0
  0
DICTIONARY
  5
FA2
330
FA1
100
AcDbDictionary
280
     1
281
     1
  3
ACAD_DIMASSOC
360
FA3
  0
DICTIONARY
  5
FA5
330
FA4
100
AcDbDictionary
280
     1
281
     1
  3
ACAD_DIMASSOC
360
FA6
  0
DICTIONARY
  5
FA8
330
FA7
100
AcDbDictionary
280
     1
281
     1
  3
ACAD_DIMASSOC
360
FA9
  0
DICTIONARY
  5
FAB
330
FAA
100
AcDbDictionary
280
     1
281
     1
  3
ACAD_DIMASSOC
360
FAC
  0
DICTIONARY
  5
FAE
330
FAD
100
AcDbDictionary
280
     1
281
     1
  3
ACAD_DIMASSOC
360
FAF
  0
DICTIONARY
  5
118D
330
117F
100
AcDbDictionary
280
     1
281
     1
  3
ACAD_DIMASSOC
360
1198
  0
DICTIONARY
  5
1C
102
{ACAD_REACTORS
330
C
102
}
330
C
100
AcDbDictionary
281
     1
  0
DICTIONARY
  5
D
102
{ACAD_REACTORS
330
C
102
}
330
C
100
AcDbDictionary
281
     1
  0
DICTIONARY
  5
1A
102
{ACAD_REACTORS
330
C
102
}
330
C
100
AcDbDictionary
281
     1
  3
Model
350
24
  3
布局1
350
20
  3
布局2
350
28
  0
DICTIONARY
  5
1B
102
{ACAD_REACTORS
330
C
102
}
330
C
100
AcDbDictionary
281
     1
  3
ByBlock
350
1132
  3
ByLayer
350
112A
  3
Global
350
113A
  0
DICTIONARY
  5
1177
102
{ACAD_REACTORS
330
C
102
}
330
C
100
AcDbDictionary
281
     1
  3
Standard
350
1178
  0
DICTIONARY
  5
17
102
{ACAD_REACTORS
330
C
102
}
330
C
100
AcDbDictionary
281
     1
  3
Standard
350
18
  0
DICTIONARY
  5
19
102
{ACAD_REACTORS
330
C
102
}
330
C
100
AcDbDictionary
281
     1
  0
ACDBDICTIONARYWDFLT
  5
E
102
{ACAD_REACTORS
330
C
102
}
330
C
100
AcDbDictionary
281
     1
  3
Normal
350
F
100
AcDbDictionaryWithDefault
340
F
  0
DICTIONARY
  5
1155
102
{ACAD_REACTORS
330
C
102
}
330
C
100
AcDbDictionary
281
     1
  3
A0
350
1156
  3
A1
350
1157
  3
A2
350
1158
  3
A3
350
1159
  3
A4
350
115A
  3
A5
350
115B
  3
A6
350
115C
  3
A7
350
115D
  3
A8
350
115E
  3
A9
350
115F
  3
B0
350
1160
  3
B1
350
1161
  3
B2
350
1162
  3
B3
350
1163
  3
B4
350
1164
  3
B5
350
1165
  3
B6
350
1166
  3
B7
350
1167
  3
B8
350
1168
  3
B9
350
1169
  3
C0
350
116A
  3
C1
350
116B
  3
C2
350
116C
  3
C3
350
116D
  3
C4
350
116E
  3
C5
350
116F
  3
C6
350
1170
  3
C7
350
1171
  3
C8
350
1172
  3
C9
350
1173
  3
D0
350
1174
  3
D1
350
1175
  3
D2
350
1176
  0
DICTIONARY
  5
1153
102
{ACAD_REACTORS
330
C
102
}
330
C
100
AcDbDictionary
281
     1
  3
Standard
350
1154
  0
DICTIONARY
  5
1142
102
{ACAD_REACTORS
330
C
102
}
330
C
100
AcDbDictionary
281
     1
  3
2dWireframe
350
1148
  3
3D Hidden
350
114A
  3
3dWireframe
350
1149
  3
Basic
350
1147
  3
Brighten
350
114E
  3
ColorChange
350
1152
  3
Conceptual
350
114B
  3
Dim
350
114D
  3
Facepattern
350
1151
  3
Flat
350
1143
  3
FlatWithEdges
350
1144
  3
Gouraud
350
1145
  3
GouraudWithEdges
350
1146
  3
Linepattern
350
1150
  3
Realistic
350
114C
  3
Thicken
350
114F
  0
XRECORD
  5
11AD
102
{ACAD_REACTORS
330
C
102
}
330
C
100
AcDbXrecord
280
     1
 90
        1
330
1154
  0
DICTIONARY
  5
11A3
102
{ACAD_REACTORS
330
C
102
}
330
C
100
AcDbDictionary
281
     1
  3
CANNOSCALE
350
11A6
  3
CMLEADERSTYLE
350
11A5
  3
CTABLESTYLE
350
11A4
  3
DIMASSOC
350
11AA
  3
HIDETEXT
350
11A9
  3
INDEXCTL
350
11A8
  3
SORTENTS
350
11A7
  0
XRECORD
  5
120E
102
{ACAD_REACTORS
330
C
102
}
330
C
100
AcDbXrecord
280
     1
  1
DWGPROPS COOKIE
  2

  3

  4

  6

  7

  8
Administrator
  9

300
=
301
=
302
=
303
=
304
=
305
=
306
=
307
=
308
=
309
=
 40
0.0245098726851852
 41
2455855.628782743
 42
2458650.399953357
  1

 90
        0
  0
DICTIONARY
  5
117D
102
{ACAD_REACTORS
330
C
102
}
330
C
100
AcDbDictionary
281
     1
  3
lxx_dimth
350
117E
  0
DICTIONARY
  5
F8
102
{ACAD_REACTORS
330
F7
102
}
330
F7
100
AcDbDictionary
281
     1
  0
XRECORD
  5
119A
102
{ACAD_REACTORS
330
1199
102
}
330
1199
100
AcDbXrecord
280
     1
290
     1
  0
XRECORD
  5
119C
102
{ACAD_REACTORS
330
119B
102
}
330
119B
100
AcDbXrecord
280
     1
290
     1
  0
XRECORD
  5
119E
102
{ACAD_REACTORS
330
119D
102
}
330
119D
100
AcDbXrecord
280
     1
290
     1
  0
XRECORD
  5
11A0
102
{ACAD_REACTORS
330
119F
102
}
330
119F
100
AcDbXrecord
280
     1
290
     1
  0
XRECORD
  5
11A2
102
{ACAD_REACTORS
330
11A1
102
}
330
11A1
100
AcDbXrecord
280
     1
290
     1
  0
DIMASSOC
  5
F51
102
{ACAD_REACTORS
330
F50
102
}
330
F50
100
AcDbDimAssoc
330
F4F
 90
        2
 70
     0
 71
     0
  1
AcDbOsnapPointRef
 72
     3
331
F64
 73
     2
 91
        0
 40
0.0
 10
0.0
 20
0.0
 30
0.0
 75
     0
  0
DIMASSOC
  5
F54
102
{ACAD_REACTORS
330
F53
102
}
330
F53
100
AcDbDimAssoc
330
F52
 90
        2
 70
     0
 71
     0
  1
AcDbOsnapPointRef
 72
     3
331
F66
 73
     2
 91
        0
 40
0.0
 10
0.0
 20
0.0
 30
0.0
 75
     0
  0
DIMASSOC
  5
F69
102
{ACAD_REACTORS
330
F68
102
}
330
F68
100
AcDbDimAssoc
330
F67
 90
        3
 70
     0
 71
     0
  1
AcDbOsnapPointRef
 72
    13
331
F6A
 73
     2
 91
        0
 40
0.0
 10
0.0
 20
0.0
 30
2.000000000000000E+50
 75
     0
  1
AcDbOsnapPointRef
 72
     1
331
F70
 73
     2
 91
        0
 40
4.680383516533098
 10
0.0
 20
0.0
 30
2.000000000000000E+50
 75
     0
  0
DIMASSOC
  5
F7F
102
{ACAD_REACTORS
330
F7E
102
}
330
F7E
100
AcDbDimAssoc
330
F7D
 90
        2
 70
     0
 71
     0
  1
AcDbOsnapPointRef
 72
     3
331
FB8
 73
     2
 91
        0
 40
0.0
 10
0.0
 20
0.0
 30
0.0
 75
     0
  0
DIMASSOC
  5
F82
102
{ACAD_REACTORS
330
F81
102
}
330
F81
100
AcDbDimAssoc
330
F80
 90
        2
 70
     0
 71
     0
  1
AcDbOsnapPointRef
 72
     3
331
FBA
 73
     2
 91
        0
 40
0.0
 10
0.0
 20
0.0
 30
0.0
 75
     0
  0
DIMASSOC
  5
F85
102
{ACAD_REACTORS
330
F84
102
}
330
F84
100
AcDbDimAssoc
330
F83
 90
        2
 70
     0
 71
     0
  1
AcDbOsnapPointRef
 72
     3
331
FB5
 73
     2
 91
        0
 40
0.0
 10
0.0
 20
0.0
 30
0.0
 75
     0
  0
DIMASSOC
  5
F88
102
{ACAD_REACTORS
330
F87
102
}
330
F87
100
AcDbDimAssoc
330
F86
 90
        2
 70
     0
 71
     0
  1
AcDbOsnapPointRef
 72
     3
331
FB2
 73
     2
 91
        0
 40
0.0
 10
0.0
 20
0.0
 30
0.0
 75
     0
  0
DIMASSOC
  5
F8D
102
{ACAD_REACTORS
330
F8C
102
}
330
F8C
100
AcDbDimAssoc
330
F8B
 90
        3
 70
     0
 71
     0
  1
AcDbOsnapPointRef
 72
    13
331
FB9
 73
     2
 91
        0
 40
3.141592653589792
 10
0.0
 20
0.0
 30
2.000000000000000E+50
 75
     0
  1
AcDbOsnapPointRef
 72
     8
331
FB7
 73
     2
 91
        0
 40
0.4583971015333334
 10
0.0
 20
0.0
 30
0.0
 75
     1
  1
AcDbOsnapPointRef
 72
    13
331
FB9
 73
     2
 91
        0
 40
3.141592653589792
 10
0.0
 20
0.0
 30
2.000000000000000E+50
 75
     0
  0
DIMASSOC
  5
F90
102
{ACAD_REACTORS
330
F8F
102
}
330
F8F
100
AcDbDimAssoc
330
F8E
 90
        3
 70
     0
 71
     0
  1
AcDbOsnapPointRef
 72
     1
331
FC2
 73
     2
 91
        0
 40
6.283185307179584
 10
0.0
 20
0.0
 30
2.000000000000000E+50
 75
     0
  1
AcDbOsnapPointRef
 72
     1
331
FCA
 73
     2
 91
        0
 40
6.283185307179584
 10
0.0
 20
0.0
 30
2.000000000000000E+50
 75
     0
  0
DIMASSOC
  5
F9D
102
{ACAD_REACTORS
330
F9C
102
}
330
F9C
100
AcDbDimAssoc
330
F9B
 90
        3
 70
     0
 71
     0
  1
AcDbOsnapPointRef
 72
     1
331
FC5
 73
     2
 91
        0
 40
1.0
 10
0.0
 20
0.0
 30
2.000000000000000E+50
 75
     0
  1
AcDbOsnapPointRef
 72
     8
331
FCC
 73
     2
 91
        0
 40
0.9583340910011058
 10
0.0
 20
0.0
 30
0.0
 75
     1
  1
AcDbOsnapPointRef
 72
     1
331
FC5
 73
     2
 91
        0
 40
1.0
 10
0.0
 20
0.0
 30
2.000000000000000E+50
 75
     0
  0
DIMASSOC
  5
FA0
102
{ACAD_REACTORS
330
F9F
102
}
330
F9F
100
AcDbDimAssoc
330
F9E
 90
        3
 70
     0
 71
     0
  1
AcDbOsnapPointRef
 72
    13
331
FB1
 73
     2
 91
        0
 40
0.0
 10
0.0
 20
0.0
 30
2.000000000000000E+50
 75
     0
  1
AcDbOsnapPointRef
 72
     8
331
FB7
 73
     2
 91
        0
 40
0.9999999999999955
 10
0.0
 20
0.0
 30
0.0
 75
     1
  1
AcDbOsnapPointRef
 72
    13
331
FB1
 73
     2
 91
        0
 40
0.0
 10
0.0
 20
0.0
 30
2.000000000000000E+50
 75
     0
  0
DIMASSOC
  5
FA3
102
{ACAD_REACTORS
330
FA2
102
}
330
FA2
100
AcDbDimAssoc
330
FA1
 90
        3
 70
     0
 71
     0
  1
AcDbOsnapPointRef
 72
     1
331
FBB
 73
     2
 91
        0
 40
3.141592653589792
 10
0.0
 20
0.0
 30
2.000000000000000E+50
 75
     0
  1
AcDbOsnapPointRef
 72
     8
331
FC2
 73
     2
 91
        0
 40
6.283185307179588
 10
0.0
 20
0.0
 30
0.0
 75
     1
  1
AcDbOsnapPointRef
 72
     1
331
FBB
 73
     2
 91
        0
 40
3.141592653589792
 10
0.0
 20
0.0
 30
2.000000000000000E+50
 75
     0
  0
DIMASSOC
  5
FA6
102
{ACAD_REACTORS
330
FA5
102
}
330
FA5
100
AcDbDimAssoc
330
FA4
 90
        3
 70
     0
 71
     0
  1
AcDbOsnapPointRef
 72
     1
331
FCB
 73
     2
 91
        0
 40
1.570796326794896
 10
0.0
 20
0.0
 30
2.000000000000000E+50
 75
     0
  1
AcDbOsnapPointRef
 72
    11
331
FC6
 73
     2
 91
        0
 40
0.9999999999999996
 10
0.0
 20
0.0
 30
0.0
332
FCA
 74
     2
 92
        0
 75
     0
  0
DIMASSOC
  5
FA9
102
{ACAD_REACTORS
330
FA8
102
}
330
FA8
100
AcDbDimAssoc
330
FA7
 90
        3
 70
     0
 71
     0
  1
AcDbOsnapPointRef
 72
    13
331
FBF
 73
     2
 91
        0
 40
1.570796326794896
 10
0.0
 20
0.0
 30
2.000000000000000E+50
 75
     0
  1
AcDbOsnapPointRef
 72
     1
331
FBC
 73
     2
 91
        0
 40
4.712388980384688
 10
0.0
 20
0.0
 30
2.000000000000000E+50
 75
     0
  0
DIMASSOC
  5
FAC
102
{ACAD_REACTORS
330
FAB
102
}
330
FAB
100
AcDbDimAssoc
330
FAA
 90
        3
 70
     0
 71
     0
  1
AcDbOsnapPointRef
 72
    13
331
FC7
 73
     2
 91
        0
 40
1.570796326794896
 10
0.0
 20
0.0
 30
2.000000000000000E+50
 75
     0
  1
AcDbOsnapPointRef
 72
     1
331
FB3
 73
     2
 91
        0
 40
4.712388980384688
 10
0.0
 20
0.0
 30
2.000000000000000E+50
 75
     0
  0
DIMASSOC
  5
FAF
102
{ACAD_REACTORS
330
FAE
102
}
330
FAE
100
AcDbDimAssoc
330
FAD
 90
        3
 70
     0
 71
     0
  1
AcDbOsnapPointRef
 72
     2
331
FB2
 73
     2
 91
        0
 40
1.570796326794896
 10
0.0
 20
0.0
 30
0.0
 75
     0
  1
AcDbOsnapPointRef
 72
     1
331
FB4
 73
     2
 91
        0
 40
4.712388980384688
 10
0.0
 20
0.0
 30
2.000000000000000E+50
 75
     0
  0
DIMASSOC
  5
1198
102
{ACAD_REACTORS
330
118D
102
}
330
118D
100
AcDbDimAssoc
330
117F
 90
        3
 70
     0
 71
     0
  1
AcDbOsnapPointRef
 72
     1
331
F7B
 73
     2
 91
        0
 40
1.0
 10
0.0
 20
0.0
 30
2.000000000000000E+50
 75
     0
  1
AcDbOsnapPointRef
 72
    10
331
F5B
 73
     2
 91
        0
 40
0.1325257217104288
 10
0.0
 20
0.0
 30
0.0
 75
     0
  0
LAYOUT
  5
24
102
{ACAD_XDICTIONARY
360
1211
102
}
102
{ACAD_REACTORS
330
1A
102
}
330
1A
100
AcDbPlotSettings
  1

  2
FX DocuPrint 255-AP
  4
A4
  6

 40
4.900083065032958
 41
4.900057315826416
 42
4.90008544921875
 43
4.90008544921875
 44
210.0156707763672
 45
297.0106506347656
 46
0.0
 47
0.0
 48
0.0
 49
0.0
140
0.0
141
0.0
142
1.0
143
1.0
 70
 11952
 72
     1
 73
     1
 74
     0
  7

 75
     0
147
1.0
148
-240.8141780939266
149
6.576926685517717
100
AcDbLayout
  1
Model
 70
     1
 71
     0
 10
0.0
 20
0.0
 11
12.0
 21
9.0
 12
0.0
 22
0.0
 32
0.0
 14
0.0
 24
0.0
 34
0.0
 15
0.0
 25
0.0
 35
0.0
146
0.0
 13
0.0
 23
0.0
 33
0.0
 16
1.0
 26
0.0
 36
0.0
 17
0.0
 27
1.0
 37
0.0
 76
     0
330
21
331
1127
  0
LAYOUT
  5
20
102
{ACAD_XDICTIONARY
360
120F
102
}
102
{ACAD_REACTORS
330
1A
102
}
330
1A
100
AcDbPlotSettings
  1

  2
FX DocuPrint 255-AP
  4

  6

 40
0.0
 41
0.0
 42
0.0
 43
0.0
 44
0.0
 45
0.0
 46
0.0
 47
0.0
 48
0.0
 49
0.0
140
0.0
141
0.0
142
1.0
143
1.0
 70
   688
 72
     0
 73
     0
 74
     5
  7

 75
    16
147
1.0
148
0.0
149
0.0
100
AcDbLayout
  1
布局1
 70
     1
 71
     1
 10
0.0
 20
0.0
 11
420.0
 21
297.0
 12
0.0
 22
0.0
 32
0.0
 14
1.000000000000000E+20
 24
1.000000000000000E+20
 34
1.000000000000000E+20
 15
-1.000000000000000E+20
 25
-1.000000000000000E+20
 35
-1.000000000000000E+20
146
0.0
 13
0.0
 23
0.0
 33
0.0
 16
1.0
 26
0.0
 36
0.0
 17
0.0
 27
1.0
 37
0.0
 76
     0
330
1D
  0
LAYOUT
  5
28
102
{ACAD_XDICTIONARY
360
1213
102
}
102
{ACAD_REACTORS
330
1A
102
}
330
1A
100
AcDbPlotSettings
  1

  2
FX DocuPrint 255-AP
  4

  6

 40
0.0
 41
0.0
 42
0.0
 43
0.0
 44
0.0
 45
0.0
 46
0.0
 47
0.0
 48
0.0
 49
0.0
140
0.0
141
0.0
142
1.0
143
1.0
 70
   688
 72
     0
 73
     0
 74
     5
  7

 75
    16
147
1.0
148
0.0
149
0.0
100
AcDbLayout
  1
布局2
 70
     1
 71
     2
 10
0.0
 20
0.0
 11
12.0
 21
9.0
 12
0.0
 22
0.0
 32
0.0
 14
0.0
 24
0.0
 34
0.0
 15
0.0
 25
0.0
 35
0.0
146
0.0
 13
0.0
 23
0.0
 33
0.0
 16
1.0
 26
0.0
 36
0.0
 17
0.0
 27
1.0
 37
0.0
 76
     0
330
25
  0
MATERIAL
  5
1132
102
{ACAD_XDICTIONARY
360
1133
102
}
102
{ACAD_REACTORS
330
1B
102
}
330
1B
100
AcDbMaterial
  1
ByBlock
 72
     0
 43
0.0008202099737533
 43
0.0
 43
0.0
 43
0.0
 43
0.0
 43
0.0008202099737533
 43
0.0
 43
0.0
 43
0.0
 43
0.0
 43
1.0
 43
0.0
 43
0.0
 43
0.0
 43
0.0
 43
1.0
 77
     0
 47
0.0008202099737533
 47
0.0
 47
0.0
 47
0.0
 47
0.0
 47
0.0008202099737533
 47
0.0
 47
0.0
 47
0.0
 47
0.0
 47
1.0
 47
0.0
 47
0.0
 47
0.0
 47
0.0
 47
1.0
171
     0
 49
0.0008202099737533
 49
0.0
 49
0.0
 49
0.0
 49
0.0
 49
0.0008202099737533
 49
0.0
 49
0.0
 49
0.0
 49
0.0
 49
1.0
 49
0.0
 49
0.0
 49
0.0
 49
0.0
 49
1.0
175
     0
142
0.0008202099737533
142
0.0
142
0.0
142
0.0
142
0.0
142
0.0008202099737533
142
0.0
142
0.0
142
0.0
142
0.0
142
1.0
142
0.0
142
0.0
142
0.0
142
0.0
142
1.0
179
     0
144
0.0008202099737533
144
0.0
144
0.0
144
0.0
144
0.0
144
0.0008202099737533
144
0.0
144
0.0
144
0.0
144
0.0
144
1.0
144
0.0
144
0.0
144
0.0
144
0.0
144
1.0
147
0.0008202099737533
147
0.0
147
0.0
147
0.0
147
0.0
147
0.0008202099737533
147
0.0
147
0.0
147
0.0
147
0.0
147
1.0
147
0.0
147
0.0
147
0.0
147
0.0
147
1.0
  0
MATERIAL
  5
112A
102
{ACAD_XDICTIONARY
360
112B
102
}
102
{ACAD_REACTORS
330
1B
102
}
330
1B
100
AcDbMaterial
  1
ByLayer
 72
     0
 43
0.0008202099737533
 43
0.0
 43
0.0
 43
0.0
 43
0.0
 43
0.0008202099737533
 43
0.0
 43
0.0
 43
0.0
 43
0.0
 43
1.0
 43
0.0
 43
0.0
 43
0.0
 43
0.0
 43
1.0
 77
     0
 47
0.0008202099737533
 47
0.0
 47
0.0
 47
0.0
 47
0.0
 47
0.0008202099737533
 47
0.0
 47
0.0
 47
0.0
 47
0.0
 47
1.0
 47
0.0
 47
0.0
 47
0.0
 47
0.0
 47
1.0
171
     0
 49
0.0008202099737533
 49
0.0
 49
0.0
 49
0.0
 49
0.0
 49
0.0008202099737533
 49
0.0
 49
0.0
 49
0.0
 49
0.0
 49
1.0
 49
0.0
 49
0.0
 49
0.0
 49
0.0
 49
1.0
175
     0
142
0.0008202099737533
142
0.0
142
0.0
142
0.0
142
0.0
142
0.0008202099737533
142
0.0
142
0.0
142
0.0
142
0.0
142
1.0
142
0.0
142
0.0
142
0.0
142
0.0
142
1.0
179
     0
144
0.0008202099737533
144
0.0
144
0.0
144
0.0
144
0.0
144
0.0008202099737533
144
0.0
144
0.0
144
0.0
144
0.0
144
1.0
144
0.0
144
0.0
144
0.0
144
0.0
144
1.0
147
0.0008202099737533
147
0.0
147
0.0
147
0.0
147
0.0
147
0.0008202099737533
147
0.0
147
0.0
147
0.0
147
0.0
147
1.0
147
0.0
147
0.0
147
0.0
147
0.0
147
1.0
  0
MATERIAL
  5
113A
102
{ACAD_XDICTIONARY
360
113B
102
}
102
{ACAD_REACTORS
330
1B
102
}
330
1B
100
AcDbMaterial
  1
Global
 72
     0
 43
0.0008202099737533
 43
0.0
 43
0.0
 43
0.0
 43
0.0
 43
0.0008202099737533
 43
0.0
 43
0.0
 43
0.0
 43
0.0
 43
1.0
 43
0.0
 43
0.0
 43
0.0
 43
0.0
 43
1.0
 77
     0
 47
0.0008202099737533
 47
0.0
 47
0.0
 47
0.0
 47
0.0
 47
0.0008202099737533
 47
0.0
 47
0.0
 47
0.0
 47
0.0
 47
1.0
 47
0.0
 47
0.0
 47
0.0
 47
0.0
 47
1.0
171
     0
 49
0.0008202099737533
 49
0.0
 49
0.0
 49
0.0
 49
0.0
 49
0.0008202099737533
 49
0.0
 49
0.0
 49
0.0
 49
0.0
 49
1.0
 49
0.0
 49
0.0
 49
0.0
 49
0.0
 49
1.0
175
     0
142
0.0008202099737533
142
0.0
142
0.0
142
0.0
142
0.0
142
0.0008202099737533
142
0.0
142
0.0
142
0.0
142
0.0
142
1.0
142
0.0
142
0.0
142
0.0
142
0.0
142
1.0
179
     0
144
0.0008202099737533
144
0.0
144
0.0
144
0.0
144
0.0
144
0.0008202099737533
144
0.0
144
0.0
144
0.0
144
0.0
144
1.0
144
0.0
144
0.0
144
0.0
144
0.0
144
1.0
147
0.0008202099737533
147
0.0
147
0.0
147
0.0
147
0.0
147
0.0008202099737533
147
0.0
147
0.0
147
0.0
147
0.0
147
1.0
147
0.0
147
0.0
147
0.0
147
0.0
147
1.0
  0
MLEADERSTYLE
  5
1178
102
{ACAD_REACTORS
330
1177
102
}
330
1177
100
AcDbMLeaderStyle
170
     2
171
     1
172
     0
 90
        2
 40
0.0
 41
0.0
173
     1
 91
-1056964608
340
14
 92
       -2
290
     1
 42
2.0
291
     1
 43
0.36
  3
Standard
 44
4.0
300

342
11
174
     1
178
     6
175
     1
176
     0
 93
-1056964608
 45
4.0
292
     0
297
     0
 46
4.0
 94
-1056964608
 47
1.0
 49
1.0
140
1.0
293
     1
141
0.0
294
     1
177
     0
142
1.0
295
     0
296
     0
143
0.125
1001
ACAD_MLEADERVER
1070
     2
  0
MLINESTYLE
  5
18
102
{ACAD_REACTORS
330
17
102
}
330
17
100
AcDbMlineStyle
  2
STANDARD
 70
     0
  3

 62
   256
 51
90.0
 52
90.0
 71
     2
 49
0.5
 62
   256
  6
BYLAYER
 49
-0.5
 62
   256
  6
BYLAYER
  0
ACDBPLACEHOLDER
  5
F
102
{ACAD_REACTORS
330
E
102
}
330
E
  0
SCALE
  5
1156
102
{ACAD_REACTORS
330
1155
102
}
330
1155
100
AcDbScale
 70
     0
300
1:1
140
1.0
141
1.0
290
     1
  0
SCALE
  5
1157
102
{ACAD_REACTORS
330
1155
102
}
330
1155
100
AcDbScale
 70
     0
300
1:2
140
1.0
141
2.0
290
     0
  0
SCALE
  5
1158
102
{ACAD_REACTORS
330
1155
102
}
330
1155
100
AcDbScale
 70
     0
300
1:4
140
1.0
141
4.0
290
     0
  0
SCALE
  5
1159
102
{ACAD_REACTORS
330
1155
102
}
330
1155
100
AcDbScale
 70
     0
300
1:5
140
1.0
141
5.0
290
     0
  0
SCALE
  5
115A
102
{ACAD_REACTORS
330
1155
102
}
330
1155
100
AcDbScale
 70
     0
300
1:8
140
1.0
141
8.0
290
     0
  0
SCALE
  5
115B
102
{ACAD_REACTORS
330
1155
102
}
330
1155
100
AcDbScale
 70
     0
300
1:10
140
1.0
141
10.0
290
     0
  0
SCALE
  5
115C
102
{ACAD_REACTORS
330
1155
102
}
330
1155
100
AcDbScale
 70
     0
300
1:16
140
1.0
141
16.0
290
     0
  0
SCALE
  5
115D
102
{ACAD_REACTORS
330
1155
102
}
330
1155
100
AcDbScale
 70
     0
300
1:20
140
1.0
141
20.0
290
     0
  0
SCALE
  5
115E
102
{ACAD_REACTORS
330
1155
102
}
330
1155
100
AcDbScale
 70
     0
300
1:30
140
1.0
141
30.0
290
     0
  0
SCALE
  5
115F
102
{ACAD_REACTORS
330
1155
102
}
330
1155
100
AcDbScale
 70
     0
300
1:40
140
1.0
141
40.0
290
     0
  0
SCALE
  5
1160
102
{ACAD_REACTORS
330
1155
102
}
330
1155
100
AcDbScale
 70
     0
300
1:50
140
1.0
141
50.0
290
     0
  0
SCALE
  5
1161
102
{ACAD_REACTORS
330
1155
102
}
330
1155
100
AcDbScale
 70
     0
300
1:100
140
1.0
141
100.0
290
     0
  0
SCALE
  5
1162
102
{ACAD_REACTORS
330
1155
102
}
330
1155
100
AcDbScale
 70
     0
300
2:1
140
2.0
141
1.0
290
     0
  0
SCALE
  5
1163
102
{ACAD_REACTORS
330
1155
102
}
330
1155
100
AcDbScale
 70
     0
300
4:1
140
4.0
141
1.0
290
     0
  0
SCALE
  5
1164
102
{ACAD_REACTORS
330
1155
102
}
330
1155
100
AcDbScale
 70
     0
300
8:1
140
8.0
141
1.0
290
     0
  0
SCALE
  5
1165
102
{ACAD_REACTORS
330
1155
102
}
330
1155
100
AcDbScale
 70
     0
300
10:1
140
10.0
141
1.0
290
     0
  0
SCALE
  5
1166
102
{ACAD_REACTORS
330
1155
102
}
330
1155
100
AcDbScale
 70
     0
300
100:1
140
100.0
141
1.0
290
     0
  0
SCALE
  5
1167
102
{ACAD_REACTORS
330
1155
102
}
330
1155
100
AcDbScale
 70
     0
300
1/128" = 1'-0"
140
0.0078125
141
12.0
290
     0
  0
SCALE
  5
1168
102
{ACAD_REACTORS
330
1155
102
}
330
1155
100
AcDbScale
 70
     0
300
1/64" = 1'-0"
140
0.015625
141
12.0
290
     0
  0
SCALE
  5
1169
102
{ACAD_REACTORS
330
1155
102
}
330
1155
100
AcDbScale
 70
     0
300
1/32" = 1'-0"
140
0.03125
141
12.0
290
     0
  0
SCALE
  5
116A
102
{ACAD_REACTORS
330
1155
102
}
330
1155
100
AcDbScale
 70
     0
300
1/16" = 1'-0"
140
0.0625
141
12.0
290
     0
  0
SCALE
  5
116B
102
{ACAD_REACTORS
330
1155
102
}
330
1155
100
AcDbScale
 70
     0
300
3/32" = 1'-0"
140
0.09375
141
12.0
290
     0
  0
SCALE
  5
116C
102
{ACAD_REACTORS
330
1155
102
}
330
1155
100
AcDbScale
 70
     0
300
1/8" = 1'-0"
140
0.125
141
12.0
290
     0
  0
SCALE
  5
116D
102
{ACAD_REACTORS
330
1155
102
}
330
1155
100
AcDbScale
 70
     0
300
3/16" = 1'-0"
140
0.1875
141
12.0
290
     0
  0
SCALE
  5
116E
102
{ACAD_REACTORS
330
1155
102
}
330
1155
100
AcDbScale
 70
     0
300
1/4" = 1'-0"
140
0.25
141
12.0
290
     0
  0
SCALE
  5
116F
102
{ACAD_REACTORS
330
1155
102
}
330
1155
100
AcDbScale
 70
     0
300
3/8" = 1'-0"
140
0.375
141
12.0
290
     0
  0
SCALE
  5
1170
102
{ACAD_REACTORS
330
1155
102
}
330
1155
100
AcDbScale
 70
     0
300
1/2" = 1'-0"
140
0.5
141
12.0
290
     0
  0
SCALE
  5
1171
102
{ACAD_REACTORS
330
1155
102
}
330
1155
100
AcDbScale
 70
     0
300
3/4" = 1'-0"
140
0.75
141
12.0
290
     0
  0
SCALE
  5
1172
102
{ACAD_REACTORS
330
1155
102
}
330
1155
100
AcDbScale
 70
     0
300
1" = 1'-0"
140
1.0
141
12.0
290
     0
  0
SCALE
  5
1173
102
{ACAD_REACTORS
330
1155
102
}
330
1155
100
AcDbScale
 70
     0
300
1-1/2" = 1'-0"
140
1.5
141
12.0
290
     0
  0
SCALE
  5
1174
102
{ACAD_REACTORS
330
1155
102
}
330
1155
100
AcDbScale
 70
     0
300
3" = 1'-0"
140
3.0
141
12.0
290
     0
  0
SCALE
  5
1175
102
{ACAD_REACTORS
330
1155
102
}
330
1155
100
AcDbScale
 70
     0
300
6" = 1'-0"
140
6.0
141
12.0
290
     0
  0
SCALE
  5
1176
102
{ACAD_REACTORS
330
1155
102
}
330
1155
100
AcDbScale
 70
     0
300
1'-0" = 1'-0"
140
12.0
141
12.0
290
     0
  0
TABLESTYLE
  5
1154
102
{ACAD_XDICTIONARY
360
11AB
102
}
102
{ACAD_REACTORS
330
1153
102
}
330
1153
100
AcDbTableStyle
  3
Standard
 70
     0
 71
     0
 40
1.5
 41
1.5
280
     0
281
     0
  7
Standard
140
4.5
170
     2
 62
     0
 63
     7
283
     0
274
    -2
284
     1
 64
     0
275
    -2
285
     1
 65
     0
276
    -2
286
     1
 66
     0
277
    -2
287
     1
 67
     0
278
    -2
288
     1
 68
     0
279
    -2
289
     1
 69
     0
  7
Standard
140
6.0
170
     5
 62
     0
 63
     7
283
     0
274
    -2
284
     1
 64
     0
275
    -2
285
     1
 65
     0
276
    -2
286
     1
 66
     0
277
    -2
287
     1
 67
     0
278
    -2
288
     1
 68
     0
279
    -2
289
     1
 69
     0
  7
Standard
140
4.5
170
     5
 62
     0
 63
     7
283
     0
274
    -2
284
     1
 64
     0
275
    -2
285
     1
 65
     0
276
    -2
286
     1
 66
     0
277
    -2
287
     1
 67
     0
278
    -2
288
     1
 68
     0
279
    -2
289
     1
 69
     0
  0
VISUALSTYLE
  5
1148
102
{ACAD_REACTORS
330
1142
102
}
330
1142
100
AcDbVisualStyle
  2
2dWireframe
 70
     4
 71
     0
 72
     2
 73
     0
 90
        0
 40
-0.6
 41
-30.0
 62
     5
 63
     7
 74
     1
 91
        4
 64
     7
 65
   257
 75
     1
175
     1
 42
1.0
 92
        0
 66
   257
 43
1.0
 76
     1
 77
     6
 78
     2
 67
     7
 79
     5
170
     0
171
     0
290
     0
174
     0
 93
        1
 44
0.0
173
     0
291
     0
 45
0.0
1001
ACAD
1000
AcDbSavedByObjectVersion
1070
     0
1000
AcDbSavedByObjectVersion
1070
     0
  0
VISUALSTYLE
  5
114A
102
{ACAD_REACTORS
330
1142
102
}
330
1142
100
AcDbVisualStyle
  2
3D Hidden
 70
     6
 71
     1
 72
     2
 73
     2
 90
        0
 40
-0.6
 41
-30.0
 62
     5
 63
     7
 74
     2
 91
        2
 64
     7
 65
   257
 75
     2
175
     1
 42
40.0
 92
        0
 66
   257
 43
1.0
 76
     1
 77
     6
 78
     2
 67
     7
 79
     3
170
     0
171
     0
290
     0
174
     0
 93
        1
 44
0.0
173
     0
291
     0
 45
0.0
1001
ACAD
1000
AcDbSavedByObjectVersion
1070
     0
1000
AcDbSavedByObjectVersion
1070
     0
  0
VISUALSTYLE
  5
1149
102
{ACAD_REACTORS
330
1142
102
}
330
1142
100
AcDbVisualStyle
  2
3dWireframe
 70
     5
 71
     0
 72
     2
 73
     0
 90
        0
 40
-0.6
 41
-30.0
 62
     5
 63
     7
 74
     1
 91
        4
 64
     7
 65
   257
 75
     1
175
     1
 42
1.0
 92
        0
 66
   257
 43
1.0
 76
     1
 77
     6
 78
     2
 67
     7
 79
     5
170
     0
171
     0
290
     0
174
     0
 93
        1
 44
0.0
173
     0
291
     0
 45
0.0
1001
ACAD
1000
AcDbSavedByObjectVersion
1070
     0
1000
AcDbSavedByObjectVersion
1070
     0
  0
VISUALSTYLE
  5
1147
102
{ACAD_REACTORS
330
1142
102
}
330
1142
100
AcDbVisualStyle
  2
Basic
 70
     7
 71
     1
 72
     0
 73
     1
 90
        0
 40
-0.6
 41
-30.0
 62
     5
 63
     7
 74
     0
 91
        4
 64
     7
 65
   257
 75
     1
175
     1
 42
1.0
 92
        8
 66
     7
 43
1.0
 76
     1
 77
     6
 78
     2
 67
     7
 79
     5
170
     0
171
     0
290
     0
174
     0
 93
        1
 44
0.0
173
     0
291
     1
 45
0.0
1001
ACAD
1000
AcDbSavedByObjectVersion
1070
     0
1000
AcDbSavedByObjectVersion
1070
     0
  0
VISUALSTYLE
  5
114E
102
{ACAD_REACTORS
330
1142
102
}
330
1142
100
AcDbVisualStyle
  2
Brighten
 70
    12
 71
     2
 72
     2
 73
     0
 90
        0
 40
-0.6
 41
-30.0
 62
     5
 63
     7
 74
     1
 91
        4
 64
     7
 65
   257
 75
     1
175
     1
 42
1.0
 92
        8
 66
     7
 43
1.0
 76
     1
 77
     6
 78
     2
 67
     7
 79
     5
170
     0
171
     0
290
     0
174
     0
 93
        1
 44
50.0
173
     0
291
     1
 45
0.0
1001
ACAD
1000
AcDbSavedByObjectVersion
1070
     0
1000
AcDbSavedByObjectVersion
1070
     0
  0
VISUALSTYLE
  5
1152
102
{ACAD_REACTORS
330
1142
102
}
330
1142
100
AcDbVisualStyle
  2
ColorChange
 70
    16
 71
     2
 72
     2
 73
     3
 90
        0
 40
-0.6
 41
-30.0
 62
     5
 63
     8
 74
     1
 91
        4
 64
     7
 65
   257
 75
     1
175
     1
 42
1.0
 92
        8
 66
     8
 43
1.0
 76
     1
 77
     6
 78
     2
 67
     7
 79
     5
170
     0
171
     0
290
     0
174
     0
 93
        1
 44
0.0
173
     0
291
     1
 45
0.0
1001
ACAD
1000
AcDbSavedByObjectVersion
1070
     0
1000
AcDbSavedByObjectVersion
1070
     0
  0
VISUALSTYLE
  5
114B
102
{ACAD_REACTORS
330
1142
102
}
330
1142
100
AcDbVisualStyle
  2
Conceptual
 70
     9
 71
     3
 72
     2
 73
     0
 90
        0
 40
-0.6
 41
-30.0
 62
     5
 63
     7
 74
     2
 91
        2
 64
     7
 65
   257
 75
     1
175
     1
 42
40.0
 92
        8
 66
     7
 43
1.0
 76
     1
 77
     6
 78
     2
 67
     7
 79
     3
170
     0
171
     0
290
     0
174
     0
 93
        1
 44
0.0
173
     0
291
     0
 45
0.0
1001
ACAD
1000
AcDbSavedByObjectVersion
1070
     0
1000
AcDbSavedByObjectVersion
1070
     0
  0
VISUALSTYLE
  5
114D
102
{ACAD_REACTORS
330
1142
102
}
330
1142
100
AcDbVisualStyle
  2
Dim
 70
    11
 71
     2
 72
     2
 73
     0
 90
        0
 40
-0.6
 41
-30.0
 62
     5
 63
     7
 74
     1
 91
        4
 64
     7
 65
   257
 75
     1
175
     1
 42
1.0
 92
        8
 66
     7
 43
1.0
 76
     1
 77
     6
 78
     2
 67
     7
 79
     5
170
     0
171
     0
290
     0
174
     0
 93
        1
 44
-50.0
173
     0
291
     1
 45
0.0
1001
ACAD
1000
AcDbSavedByObjectVersion
1070
     0
1000
AcDbSavedByObjectVersion
1070
     0
  0
VISUALSTYLE
  5
1151
102
{ACAD_REACTORS
330
1142
102
}
330
1142
100
AcDbVisualStyle
  2
Facepattern
 70
    15
 71
     2
 72
     2
 73
     0
 90
        0
 40
-0.6
 41
-30.0
 62
     5
 63
     7
 74
     1
 91
        4
 64
     7
 65
   257
 75
     1
175
     1
 42
1.0
 92
        8
 66
     7
 43
1.0
 76
     1
 77
     6
 78
     2
 67
     7
 79
     5
170
     0
171
     0
290
     0
174
     0
 93
        1
 44
0.0
173
     0
291
     1
 45
0.0
1001
ACAD
1000
AcDbSavedByObjectVersion
1070
     0
1000
AcDbSavedByObjectVersion
1070
     0
  0
VISUALSTYLE
  5
1143
102
{ACAD_REACTORS
330
1142
102
}
330
1142
100
AcDbVisualStyle
  2
Flat
 70
     0
 71
     2
 72
     1
 73
     1
 90
        2
 40
-0.6
 41
30.0
 62
     5
 63
     7
 74
     0
 91
        4
 64
     7
 65
   257
 75
     1
175
     1
 42
1.0
 92
        8
 66
     7
 43
1.0
 76
     1
 77
     6
 78
     2
 67
     7
 79
     5
170
     0
171
     0
290
     0
174
     0
 93
       13
 44
0.0
173
     0
291
     1
 45
0.0
1001
ACAD
1000
AcDbSavedByObjectVersion
1070
     0
1000
AcDbSavedByObjectVersion
1070
     0
  0
VISUALSTYLE
  5
1144
102
{ACAD_REACTORS
330
1142
102
}
330
1142
100
AcDbVisualStyle
  2
FlatWithEdges
 70
     1
 71
     2
 72
     1
 73
     1
 90
        2
 40
-0.6
 41
30.0
 62
     5
 63
     7
 74
     1
 91
        4
 64
     7
 65
   257
 75
     1
175
     1
 42
1.0
 92
        0
 66
   257
 43
1.0
 76
     1
 77
     6
 78
     2
 67
     7
 79
     5
170
     0
171
     0
290
     0
174
     0
 93
       13
 44
0.0
173
     0
291
     1
 45
0.0
1001
ACAD
1000
AcDbSavedByObjectVersion
1070
     0
1000
AcDbSavedByObjectVersion
1070
     0
  0
VISUALSTYLE
  5
1145
102
{ACAD_REACTORS
330
1142
102
}
330
1142
100
AcDbVisualStyle
  2
Gouraud
 70
     2
 71
     2
 72
     2
 73
     1
 90
        2
 40
-0.6
 41
30.0
 62
     5
 63
     7
 74
     0
 91
        4
 64
     7
 65
   257
 75
     1
175
     1
 42
1.0
 92
        0
 66
     7
 43
1.0
 76
     1
 77
     6
 78
     2
 67
     7
 79
     5
170
     0
171
     0
290
     0
174
     0
 93
       13
 44
0.0
173
     0
291
     1
 45
0.0
1001
ACAD
1000
AcDbSavedByObjectVersion
1070
     0
1000
AcDbSavedByObjectVersion
1070
     0
  0
VISUALSTYLE
  5
1146
102
{ACAD_REACTORS
330
1142
102
}
330
1142
100
AcDbVisualStyle
  2
GouraudWithEdges
 70
     3
 71
     2
 72
     2
 73
     1
 90
        2
 40
-0.6
 41
30.0
 62
     5
 63
     7
 74
     1
 91
        4
 64
     7
 65
   257
 75
     1
175
     1
 42
1.0
 92
        0
 66
   257
 43
1.0
 76
     1
 77
     6
 78
     2
 67
     7
 79
     5
170
     0
171
     0
290
     0
174
     0
 93
       13
 44
0.0
173
     0
291
     1
 45
0.0
1001
ACAD
1000
AcDbSavedByObjectVersion
1070
     0
1000
AcDbSavedByObjectVersion
1070
     0
  0
VISUALSTYLE
  5
1150
102
{ACAD_REACTORS
330
1142
102
}
330
1142
100
AcDbVisualStyle
  2
Linepattern
 70
    14
 71
     2
 72
     2
 73
     0
 90
        0
 40
-0.6
 41
-30.0
 62
     5
 63
     7
 74
     1
 91
        4
 64
     7
 65
   257
 75
     7
175
     7
 42
1.0
 92
        8
 66
     7
 43
1.0
 76
     1
 77
     6
 78
     2
 67
     7
 79
     5
170
     0
171
     0
290
     0
174
     0
 93
        1
 44
0.0
173
     0
291
     1
 45
0.0
1001
ACAD
1000
AcDbSavedByObjectVersion
1070
     0
1000
AcDbSavedByObjectVersion
1070
     0
  0
VISUALSTYLE
  5
114C
102
{ACAD_REACTORS
330
1142
102
}
330
1142
100
AcDbVisualStyle
  2
Realistic
 70
     8
 71
     2
 72
     2
 73
     0
 90
        0
 40
-0.6
 41
-30.0
 62
     5
 63
     7
 74
     1
 91
        0
 64
     7
 65
   257
 75
     1
175
     1
 42
1.0
 92
        8
 66
     8
 43
1.0
 76
     1
 77
     6
 78
     2
 67
     7
 79
     5
170
     0
171
     0
290
     0
174
     0
 93
       13
 44
0.0
173
     0
291
     0
 45
0.0
1001
ACAD
1000
AcDbSavedByObjectVersion
1070
     0
1000
AcDbSavedByObjectVersion
1070
     0
  0
VISUALSTYLE
  5
114F
102
{ACAD_REACTORS
330
1142
102
}
330
1142
100
AcDbVisualStyle
  2
Thicken
 70
    13
 71
     2
 72
     2
 73
     0
 90
        0
 40
-0.6
 41
-30.0
 62
     5
 63
     7
 74
     1
 91
        4
 64
     7
 65
   257
 75
     1
175
     1
 42
1.0
 92
       12
 66
     7
 43
1.0
 76
     1
 77
     6
 78
     2
 67
     7
 79
     5
170
     0
171
     0
290
     0
174
     0
 93
        1
 44
0.0
173
     0
291
     1
 45
0.0
1001
ACAD
1000
AcDbSavedByObjectVersion
1070
     0
1000
AcDbSavedByObjectVersion
1070
     0
  0
DICTIONARYVAR
  5
11A6
102
{ACAD_REACTORS
330
11A3
102
}
330
11A3
100
DictionaryVariables
280
     0
  1
1:1
  0
DICTIONARYVAR
  5
11A5
102
{ACAD_REACTORS
330
11A3
102
}
330
11A3
100
DictionaryVariables
280
     0
  1
STANDARD
  0
DICTIONARYVAR
  5
11A4
102
{ACAD_REACTORS
330
11A3
102
}
330
11A3
100
DictionaryVariables
280
     0
  1
STANDARD
  0
DICTIONARYVAR
  5
11AA
102
{ACAD_REACTORS
330
11A3
102
}
330
11A3
100
DictionaryVariables
280
     0
  1
2
  0
DICTIONARYVAR
  5
11A9
102
{ACAD_REACTORS
330
11A3
102
}
330
11A3
100
DictionaryVariables
280
     0
  1
1
  0
DICTIONARYVAR
  5
11A8
102
{ACAD_REACTORS
330
11A3
102
}
330
11A3
100
DictionaryVariables
280
     0
  1
0
  0
DICTIONARYVAR
  5
11A7
102
{ACAD_REACTORS
330
11A3
102
}
330
11A3
100
DictionaryVariables
280
     0
  1
127
  0
VLO-VL
  5
117E
102
{ACAD_REACTORS
330
117D
102
}
330
117D
100
vlo_VL
 90
   -64512
 91
       12
 92
        1
 40
2.5
300
(&VLO-R . 0)
  0
DICTIONARY
  5
1211
330
24
100
AcDbDictionary
280
     1
281
     1
  3
ACAD_XREC_ROUNDTRIP
360
1212
  0
DICTIONARY
  5
120F
330
20
100
AcDbDictionary
280
     1
281
     1
  3
ACAD_XREC_ROUNDTRIP
360
1210
  0
DICTIONARY
  5
1213
330
28
100
AcDbDictionary
280
     1
281
     1
  3
ACAD_XREC_ROUNDTRIP
360
1214
  0
DICTIONARY
  5
1133
330
1132
100
AcDbDictionary
280
     1
281
     1
  3
ACAD_XREC_ROUNDTRIP
360
11B6
  3
BUMPTILE
360
1135
  3
DIFFUSETILE
360
1134
  3
OPACITYTILE
360
1138
  3
REFLECTIONTILE
360
1137
  3
REFRACTIONTILE
360
1139
  3
SPECULARTILE
360
1136
  0
DICTIONARY
  5
112B
330
112A
100
AcDbDictionary
280
     1
281
     1
  3
ACAD_XREC_ROUNDTRIP
360
11B5
  3
BUMPTILE
360
112D
  3
DIFFUSETILE
360
112C
  3
OPACITYTILE
360
1130
  3
REFLECTIONTILE
360
112F
  3
REFRACTIONTILE
360
1131
  3
SPECULARTILE
360
112E
  0
DICTIONARY
  5
113B
330
113A
100
AcDbDictionary
280
     1
281
     1
  3
ACAD_XREC_ROUNDTRIP
360
11B7
  3
BUMPTILE
360
113D
  3
DIFFUSETILE
360
113C
  3
OPACITYTILE
360
1140
  3
REFLECTIONTILE
360
113F
  3
REFRACTIONTILE
360
1141
  3
SPECULARTILE
360
113E
  0
DICTIONARY
  5
11AB
330
1154
100
AcDbDictionary
280
     1
281
     1
  3
ACAD_ROUNDTRIP_2008_TABLESTYLE_CELLSTYLEMAP
360
120D
  3
ACAD_XREC_ROUNDTRIP
360
1215
  0
XRECORD
  5
1212
102
{ACAD_REACTORS
330
1211
102
}
330
1211
100
AcDbXrecord
280
     1
102
SHADEPLOT
 70
     0
102
SHADEPLOTRESLEVEL
 70
     2
102
SHADEPLOTCUSTOMDPI
 70
   300
  0
XRECORD
  5
1210
102
{ACAD_REACTORS
330
120F
102
}
330
120F
100
AcDbXrecord
280
     1
102
SHADEPLOT
 70
     0
102
SHADEPLOTRESLEVEL
 70
     2
102
SHADEPLOTCUSTOMDPI
 70
   300
  0
XRECORD
  5
1214
102
{ACAD_REACTORS
330
1213
102
}
330
1213
100
AcDbXrecord
280
     1
102
SHADEPLOT
 70
     0
102
SHADEPLOTRESLEVEL
 70
     2
102
SHADEPLOTCUSTOMDPI
 70
   300
  0
XRECORD
  5
11B6
102
{ACAD_REACTORS
330
1133
102
}
330
1133
100
AcDbXrecord
280
     1
102
MATERIAL
148
0.0
149
0.0
149
0.0
 93
        0
 94
      127
282
     0
 72
     0
 77
     0
171
     0
175
     0
179
     0
273
     0
  0
XRECORD
  5
1135
102
{ACAD_REACTORS
330
1133
102
}
330
1133
100
AcDbXrecord
280
     1
270
     1
271
     1
  0
XRECORD
  5
1134
102
{ACAD_REACTORS
330
1133
102
}
330
1133
100
AcDbXrecord
280
     1
270
     1
271
     1
  0
XRECORD
  5
1138
102
{ACAD_REACTORS
330
1133
102
}
330
1133
100
AcDbXrecord
280
     1
270
     1
271
     1
  0
XRECORD
  5
1137
102
{ACAD_REACTORS
330
1133
102
}
330
1133
100
AcDbXrecord
280
     1
270
     1
271
     1
  0
XRECORD
  5
1139
102
{ACAD_REACTORS
330
1133
102
}
330
1133
100
AcDbXrecord
280
     1
270
     1
271
     1
  0
XRECORD
  5
1136
102
{ACAD_REACTORS
330
1133
102
}
330
1133
100
AcDbXrecord
280
     1
270
     1
271
     1
  0
XRECORD
  5
11B5
102
{ACAD_REACTORS
330
112B
102
}
330
112B
100
AcDbXrecord
280
     1
102
MATERIAL
148
0.0
149
0.0
149
0.0
 93
        0
 94
      127
282
     0
 72
     0
 77
     0
171
     0
175
     0
179
     0
273
     0
  0
XRECORD
  5
112D
102
{ACAD_REACTORS
330
112B
102
}
330
112B
100
AcDbXrecord
280
     1
270
     1
271
     1
  0
XRECORD
  5
112C
102
{ACAD_REACTORS
330
112B
102
}
330
112B
100
AcDbXrecord
280
     1
270
     1
271
     1
  0
XRECORD
  5
1130
102
{ACAD_REACTORS
330
112B
102
}
330
112B
100
AcDbXrecord
280
     1
270
     1
271
     1
  0
XRECORD
  5
112F
102
{ACAD_REACTORS
330
112B
102
}
330
112B
100
AcDbXrecord
280
     1
270
     1
271
     1
  0
XRECORD
  5
1131
102
{ACAD_REACTORS
330
112B
102
}
330
112B
100
AcDbXrecord
280
     1
270
     1
271
     1
  0
XRECORD
  5
112E
102
{ACAD_REACTORS
330
112B
102
}
330
112B
100
AcDbXrecord
280
     1
270
     1
271
     1
  0
XRECORD
  5
11B7
102
{ACAD_REACTORS
330
113B
102
}
330
113B
100
AcDbXrecord
280
     1
102
MATERIAL
148
0.0
149
0.0
149
0.0
 93
        0
 94
      127
282
     0
 72
     0
 77
     0
171
     0
175
     0
179
     0
273
     0
  0
XRECORD
  5
113D
102
{ACAD_REACTORS
330
113B
102
}
330
113B
100
AcDbXrecord
280
     1
270
     1
271
     1
  0
XRECORD
  5
113C
102
{ACAD_REACTORS
330
113B
102
}
330
113B
100
AcDbXrecord
280
     1
270
     1
271
     1
  0
XRECORD
  5
1140
102
{ACAD_REACTORS
330
113B
102
}
330
113B
100
AcDbXrecord
280
     1
270
     1
271
     1
  0
XRECORD
  5
113F
102
{ACAD_REACTORS
330
113B
102
}
330
113B
100
AcDbXrecord
280
     1
270
     1
271
     1
  0
XRECORD
  5
1141
102
{ACAD_REACTORS
330
113B
102
}
330
113B
100
AcDbXrecord
280
     1
270
     1
271
     1
  0
XRECORD
  5
113E
102
{ACAD_REACTORS
330
113B
102
}
330
113B
100
AcDbXrecord
280
     1
270
     1
271
     1
  0
CELLSTYLEMAP
  5
120D
102
{ACAD_REACTORS
330
11AB
102
}
330
11AB
100
AcDbCellStyleMap
 90
        3
300
CELLSTYLE
  1
TABLEFORMAT_BEGIN
 90
        5
170
     1
 91
        0
 92
    32768
 62
   257
 93
        1
300
CONTENTFORMAT
  1
CONTENTFORMAT_BEGIN
 90
        0
 91
        0
 92
      512
 93
        0
300

 40
0.0
140
1.0
 94
        5
 62
     0
340
11
144
6.0
309
CONTENTFORMAT_END
171
     1
301
MARGIN
  1
CELLMARGIN_BEGIN
 40
1.5
 40
1.5
 40
1.5
 40
1.5
 40
0.18
 40
0.18
309
CELLMARGIN_END
 94
        6
 95
        1
302
GRIDFORMAT
  1
GRIDFORMAT_BEGIN
 90
        0
 91
        1
 62
     0
 92
       -2
340
0
 93
        0
 40
1.125
309
GRIDFORMAT_END
 95
        2
302
GRIDFORMAT
  1
GRIDFORMAT_BEGIN
 90
        0
 91
        1
 62
     0
 92
       -2
340
0
 93
        0
 40
1.125
309
GRIDFORMAT_END
 95
        4
302
GRIDFORMAT
  1
GRIDFORMAT_BEGIN
 90
        0
 91
        1
 62
     0
 92
       -2
340
0
 93
        0
 40
1.125
309
GRIDFORMAT_END
 95
        8
302
GRIDFORMAT
  1
GRIDFORMAT_BEGIN
 90
        0
 91
        1
 62
     0
 92
       -2
340
0
 93
        0
 40
1.125
309
GRIDFORMAT_END
 95
       16
302
GRIDFORMAT
  1
GRIDFORMAT_BEGIN
 90
        0
 91
        1
 62
     0
 92
       -2
340
0
 93
        0
 40
1.125
309
GRIDFORMAT_END
 95
       32
302
GRIDFORMAT
  1
GRIDFORMAT_BEGIN
 90
        0
 91
        1
 62
     0
 92
       -2
340
0
 93
        0
 40
1.125
309
GRIDFORMAT_END
309
TABLEFORMAT_END
  1
CELLSTYLE_BEGIN
 90
        1
 91
        1
300
_TITLE
309
CELLSTYLE_END
300
CELLSTYLE
  1
TABLEFORMAT_BEGIN
 90
        5
170
     1
 91
        0
 92
        0
 62
   257
 93
        1
300
CONTENTFORMAT
  1
CONTENTFORMAT_BEGIN
 90
        0
 91
        0
 92
      512
 93
        0
300

 40
0.0
140
1.0
 94
        5
 62
     0
340
11
144
4.5
309
CONTENTFORMAT_END
171
     1
301
MARGIN
  1
CELLMARGIN_BEGIN
 40
1.5
 40
1.5
 40
1.5
 40
1.5
 40
0.18
 40
0.18
309
CELLMARGIN_END
 94
        6
 95
        1
302
GRIDFORMAT
  1
GRIDFORMAT_BEGIN
 90
        0
 91
        1
 62
     0
 92
       -2
340
0
 93
        0
 40
1.125
309
GRIDFORMAT_END
 95
        2
302
GRIDFORMAT
  1
GRIDFORMAT_BEGIN
 90
        0
 91
        1
 62
     0
 92
       -2
340
0
 93
        0
 40
1.125
309
GRIDFORMAT_END
 95
        4
302
GRIDFORMAT
  1
GRIDFORMAT_BEGIN
 90
        0
 91
        1
 62
     0
 92
       -2
340
0
 93
        0
 40
1.125
309
GRIDFORMAT_END
 95
        8
302
GRIDFORMAT
  1
GRIDFORMAT_BEGIN
 90
        0
 91
        1
 62
     0
 92
       -2
340
0
 93
        0
 40
1.125
309
GRIDFORMAT_END
 95
       16
302
GRIDFORMAT
  1
GRIDFORMAT_BEGIN
 90
        0
 91
        1
 62
     0
 92
       -2
340
0
 93
        0
 40
1.125
309
GRIDFORMAT_END
 95
       32
302
GRIDFORMAT
  1
GRIDFORMAT_BEGIN
 90
        0
 91
        1
 62
     0
 92
       -2
340
0
 93
        0
 40
1.125
309
GRIDFORMAT_END
309
TABLEFORMAT_END
  1
CELLSTYLE_BEGIN
 90
        2
 91
        1
300
_HEADER
309
CELLSTYLE_END
300
CELLSTYLE
  1
TABLEFORMAT_BEGIN
 90
        5
170
     1
 91
        0
 92
        0
 62
   257
 93
        1
300
CONTENTFORMAT
  1
CONTENTFORMAT_BEGIN
 90
        0
 91
        0
 92
      512
 93
        0
300

 40
0.0
140
1.0
 94
        2
 62
     0
340
11
144
4.5
309
CONTENTFORMAT_END
171
     1
301
MARGIN
  1
CELLMARGIN_BEGIN
 40
1.5
 40
1.5
 40
1.5
 40
1.5
 40
0.18
 40
0.18
309
CELLMARGIN_END
 94
        6
 95
        1
302
GRIDFORMAT
  1
GRIDFORMAT_BEGIN
 90
        0
 91
        1
 62
     0
 92
       -2
340
0
 93
        0
 40
1.125
309
GRIDFORMAT_END
 95
        2
302
GRIDFORMAT
  1
GRIDFORMAT_BEGIN
 90
        0
 91
        1
 62
     0
 92
       -2
340
0
 93
        0
 40
1.125
309
GRIDFORMAT_END
 95
        4
302
GRIDFORMAT
  1
GRIDFORMAT_BEGIN
 90
        0
 91
        1
 62
     0
 92
       -2
340
0
 93
        0
 40
1.125
309
GRIDFORMAT_END
 95
        8
302
GRIDFORMAT
  1
GRIDFORMAT_BEGIN
 90
        0
 91
        1
 62
     0
 92
       -2
340
0
 93
        0
 40
1.125
309
GRIDFORMAT_END
 95
       16
302
GRIDFORMAT
  1
GRIDFORMAT_BEGIN
 90
        0
 91
        1
 62
     0
 92
       -2
340
0
 93
        0
 40
1.125
309
GRIDFORMAT_END
 95
       32
302
GRIDFORMAT
  1
GRIDFORMAT_BEGIN
 90
        0
 91
        1
 62
     0
 92
       -2
340
0
 93
        0
 40
1.125
309
GRIDFORMAT_END
309
TABLEFORMAT_END
  1
CELLSTYLE_BEGIN
 90
        3
 91
        2
300
_DATA
309
CELLSTYLE_END
  0
XRECORD
  5
1215
102
{ACAD_REACTORS
330
11AB
102
}
330
11AB
100
AcDbXrecord
280
     1
102
ACAD_ROUNDTRIP_PRE2007_TABLESTYLE
 90
      512
 91
        0
  1

 92
      512
 93
        0
  2

 94
      512
 95
        0
  3

  0
ENDSEC
  0
EOF
